<?xml version="1.0" standalone="no"?>
<!DOCTYPE svg PUBLIC "-//W3C//DTD SVG 1.1//EN" "http://www.w3.org/Graphics/SVG/1.1/DTD/svg11.dtd" >
<svg xmlns="http://www.w3.org/2000/svg">
<metadata>
<json>
<![CDATA[
{
	"fontFamily": "bgek-icon",
	"description": "Font generated by IcoMoon.",
	"majorVersion": 1,
	"minorVersion": 0,
	"version": "Version 1.0",
	"fontId": "bgek-icon",
	"psName": "bgek-icon",
	"subFamily": "Regular",
	"fullName": "bgek-icon"
}
]]>
</json>
</metadata>
<defs>
<font id="bgek-icon" horiz-adv-x="1024">
<font-face units-per-em="1024" ascent="960" descent="-64" />
<missing-glyph horiz-adv-x="1024" />
<glyph unicode="&#x20;" horiz-adv-x="512" d="" />
<glyph unicode="&#x2b;" glyph-name="plus" data-tags="plus" d="M832.512 507.961h-267.662v267.662c0 27.079-22.187 49.266-49.266 49.266h-7.111c-27.079 0-49.266-22.187-49.266-49.266v-267.662h-267.719c-27.079 0-49.266-22.187-49.266-49.323v-7.054c0-27.079 22.187-49.266 49.266-49.266h267.662v-267.662c0-27.079 22.187-49.266 49.266-49.266h7.054c27.079 0 49.266 22.187 49.266 49.266v267.605h267.662c27.079 0 49.266 22.187 49.266 49.266v7.111c0.114 27.136-22.073 49.323-49.152 49.323z" />
<glyph unicode="&#x2d;" glyph-name="minus" data-tags="minus" d="M142.222 458.297v-6.372c0-24.405 22.187-44.373 49.266-44.373h640.967c27.079 0 49.266 19.968 49.266 44.373v6.372c0 24.405-22.187 44.373-49.266 44.373h-640.967c-27.079 0-49.266-19.968-49.266-44.373z" />
<glyph unicode="&#x31;" glyph-name="up" data-tags="up" d="M511.829 567.637l-385.877-385.877c-15.815-15.815-41.643-15.815-57.515 0-15.36 15.36-15.36 42.155 0 57.515l443.392 443.392 443.335-443.392c7.68-7.68 11.947-17.92 11.947-28.729 0-10.866-4.21-21.106-11.947-28.729-15.815-15.815-41.7-15.815-57.515 0l-385.82 385.82z" />
<glyph unicode="&#x32;" glyph-name="right" data-tags="right" d="M625.323 454.94l-385.877-385.877c-15.815-15.815-15.815-41.643 0-57.515 15.36-15.36 42.155-15.36 57.515 0l443.335 443.392-443.392 443.335c-7.68 7.737-17.863 11.947-28.729 11.947s-21.106-4.21-28.729-11.947c-15.815-15.815-15.815-41.7 0-57.515l385.877-385.82z" />
<glyph unicode="&#x33;" glyph-name="down" data-tags="down" d="M511.829 284.899l-385.877 385.877c-15.815 15.815-41.643 15.815-57.515 0-15.36-15.36-15.36-42.155 0-57.515l443.392-443.335 443.335 443.392c7.68 7.68 11.947 17.863 11.947 28.729s-4.21 21.106-11.947 28.729c-15.815 15.815-41.7 15.815-57.515 0l-385.82-385.877z" />
<glyph unicode="&#x34;" glyph-name="left" data-tags="left" d="M342.585 454.94l385.877-385.877c15.815-15.815 15.815-41.643 0-57.515-15.36-15.36-42.155-15.36-57.515 0l-443.392 443.392 443.392 443.335c7.68 7.737 17.92 11.947 28.729 11.947 10.866 0 21.106-4.21 28.729-11.947 15.815-15.815 15.815-41.7 0-57.515l-385.82-385.82z" />
<glyph unicode="&#x43;" glyph-name="chat" data-tags="chat" d="M449.609 854.252c200.119 0 362.423-127.561 362.423-284.891s-162.231-284.891-362.423-284.891c-29.184 0-57.417 2.999-84.626 8.119-10.386-15.36-94.135-132.315-220.818-110.299 79.945 69.632 85.138 134.729 82.798 162.597-84.919 52.151-139.703 133.193-139.703 224.475 0 157.33 162.231 284.891 362.35 284.891zM849.627 166.928c-1.902-22.967 2.341-76.654 68.315-134.071-104.521-18.213-173.568 78.336-182.126 90.99-22.455-4.242-45.714-6.729-69.778-6.729-110.811 0-207.287 47.47-258.926 117.833 10.825-0.731 21.797-0.658 32.841-1.17 226.523-11.191 393.801 126.683 426.35 292.352 60.416-43.008 98.597-104.96 98.597-174.080 0-75.264-45.202-142.117-115.273-185.125z" />
<glyph unicode="&#x44;" glyph-name="down2" data-tags="down2" d="M113.778 568.889l398.222-341.333 398.222 341.333z" />
<glyph unicode="&#x45;" glyph-name="up2" data-tags="up2" d="M113.778 341.333l398.222 341.333 398.222-341.333z" />
<glyph unicode="&#x49;" glyph-name="info-a" data-tags="info-a" d="M524.971 722.091c-11.321-11.662-16.953-25.6-16.953-41.927s5.746-30.208 17.237-41.643c11.492-11.492 25.202-17.237 41.188-17.237 16.27 0 30.265 5.746 41.927 17.237 11.605 11.435 17.408 25.372 17.408 41.643s-5.746 30.265-17.237 41.927c-11.435 11.662-25.543 17.465-42.155 17.465-16.327 0-30.094-5.803-41.415-17.465zM567.41 554.439l-136.249-21.959-5.006-15.986c5.348 0.341 10.183 0.512 14.507 0.512 8.647 0 15.531-2.332 20.708-6.997 5.12-4.665 7.737-10.012 7.737-15.986 0-9.33-2.674-23.154-7.964-41.415l-55.865-192.114c-4.722-15.303-7.054-27.932-7.054-37.945 0-14.962 5.12-27.364 15.474-37.205 10.297-9.785 24.121-14.677 41.415-14.677 45.568 0 88.633 35.271 129.252 105.813l-13.995 7.964c-16.612-25.941-31.118-43.918-43.406-53.874-4.324-3.982-8.818-5.973-13.483-5.973-2.674 0-5.177 1.308-7.452 3.982-2.332 2.674-3.47 5.348-3.47 7.964 0 5.348 2.162 16.156 6.485 32.427l82.318 285.468h-23.95zM512 841.955c213.333 0 386.844-173.511 386.844-386.844s-173.511-386.844-386.844-386.844-386.844 173.511-386.844 386.844 173.511 386.844 386.844 386.844zM512 910.222c-251.335 0-455.111-203.776-455.111-455.111s203.776-455.111 455.111-455.111 455.111 203.776 455.111 455.111-203.776 455.111-455.111 455.111v0z" />
<glyph unicode="&#x4b;" glyph-name="checked" data-tags="checked" d="M952.036 727.666c-16.612 15.872-43.52 15.872-60.132 0l-480.313-458.923-225.166 215.097c-16.612 15.872-43.52 15.872-60.132 0s-16.612-41.586 0-57.458l255.204-243.826c8.306-7.964 19.172-11.89 30.037-11.89s21.732 3.925 30.094 11.89l510.407 487.652c16.555 15.872 16.555 41.529 0 57.458z" />
<glyph unicode="&#x4c;" glyph-name="login" data-tags="login" d="M796.444 0h-568.889c-31.289 0-56.889 25.6-56.889 56.889v398.222c0 31.289 25.6 56.889 56.889 56.889h568.889c31.289 0 56.889-25.6 56.889-56.889v-398.222c0-31.289-25.6-56.889-56.889-56.889zM341.333 568.889v113.778c0 94.094 76.572 170.667 170.667 170.667s170.667-76.572 170.667-170.667v-113.778h56.889v113.778c0 125.156-102.4 227.556-227.556 227.556s-227.556-102.4-227.556-227.556v-113.778h56.889z" />
<glyph unicode="&#x4d;" glyph-name="messageB" data-tags="messageB" d="M910.222 56.889h-796.444c-31.403 0-56.889 24.121-56.889 53.874v430.876c0 0 342.016-157.355 406.187-188.53 29.81-14.45 70.77-13.824 101.148 0 78.905 35.954 402.887 188.53 402.887 188.53v-430.876c0-29.753-25.486-53.874-56.889-53.874zM853.333 514.731v242.347h-682.667v-242.347l-113.778 61.156v73.444c0 29.753 25.486 53.874 56.889 53.874v107.748h196.551c51.314 28.046 104.391 57.060 148.196 80.782 25.714 13.938 63.374 13.71 89.372 0 45.056-23.78 100.58-52.736 154.453-80.782h207.872v-107.691c31.403 0 56.889-24.121 56.889-53.874v-73.5l-113.778-61.156z" />
<glyph unicode="&#x4e;" glyph-name="newsletter" data-tags="newsletter" d="M910.222 0h-796.444c-31.403 0-56.889 27.136-56.889 56.889v455.111c0 0 342.016-157.355 406.187-188.53 29.81-14.45 70.77-13.824 101.148 0 78.905 35.954 402.887 188.53 402.887 188.53v-455.111c0-29.753-25.486-56.889-56.889-56.889zM853.333 514.731v242.347h-682.667v-242.347l-113.778 54.158v80.441c0 29.753 25.486 53.874 56.889 53.874v107.748h196.551c51.314 28.046 104.391 57.060 148.196 80.782 25.714 13.938 63.374 13.71 89.372 0 45.056-23.78 100.58-52.736 154.453-80.782h207.872v-107.691c31.403 0 56.889-24.121 56.889-53.874v-80.498l-113.778-54.158zM666.226 644.892c-12.288 24.405-30.777 43.179-55.524 56.206-24.747 13.141-54.386 19.627-88.633 19.627-33.792 0-64.057-7.225-90.908-21.845-26.908-14.507-48.128-35.157-63.772-61.838-15.531-26.624-24.121-56.832-25.771-90.396-1.707-35.044 3.755-65.252 16.27-90.51 12.516-25.316 31.46-44.43 56.889-57.401s56.149-19.456 92.274-19.456c14.336 0 28.558 1.536 42.724 4.551 14.165 2.958 25.429 6.884 33.678 11.776l-7.737 28.16c-8.988-3.925-19.74-6.884-32.142-9.102-12.345-2.332-24.292-3.413-35.669-3.413-43.065 0-75.435 11.776-96.996 35.385-21.561 23.552-31.289 56.889-29.070 99.954 1.422 28.444 8.192 53.589 20.025 75.605 11.947 22.016 28.16 38.912 48.868 50.859 20.537 11.947 44.089 17.92 70.542 17.92 42.212 0 74.012-11.435 95.63-34.19 21.504-22.869 31.118-55.524 28.843-98.020-0.853-21.22-5.461-38.4-13.995-51.428-8.42-13.141-18.944-19.684-31.573-19.684-8.192 0-14.165 2.56-17.92 7.68s-4.949 12.516-3.584 22.073l10.411 105.7-12.857 7.794c-13.824 8.021-30.549 12.004-50.062 12.004-15.872 0-30.606-4.153-44.26-12.629-13.653-8.363-24.974-20.366-33.963-36.068-8.988-15.588-14.677-33.508-17.18-53.646-2.731-24.576 1.365-44.373 12.402-59.392 10.923-14.905 26.34-22.414 46.308-22.414 22.016 0 39.822 8.533 53.476 25.6 4.437-8.42 10.809-14.848 19.456-19.342 8.533-4.494 18.66-6.827 30.436-6.827 26.624 0 47.844 9.216 63.659 27.534 15.758 18.318 24.405 43.065 25.941 74.183 1.536 32.37-3.925 60.7-16.213 84.992zM537.657 521.955c-3.925-9.899-8.932-17.408-15.019-22.699-5.973-5.177-12.345-7.851-19.001-7.851-10.411 0-17.92 4.153-22.585 12.516-4.665 8.42-6.258 20.594-4.722 36.636 2.56 22.926 8.249 40.334 16.896 52.281 8.704 11.947 20.878 17.92 36.58 17.92 5.632 0 11.093-0.74 16.441-2.389l-8.59-86.414z" />
<glyph unicode="&#x4f;" glyph-name="copy" data-tags="copy" d="M832 640h-192v64l-192 192h-384v-704h384v-192h576v448l-192 192zM832 549.49l101.49-101.49h-101.49v101.49zM448 805.49l101.49-101.49h-101.49v101.49zM128 832h256v-192h192v-384h-448v576zM960 64h-448v128h128v384h128v-192h192v-320z" />
<glyph unicode="&#x53;" glyph-name="key" data-tags="key" d="M587.093 359.196l-74.98-74.98v-112.981h-114.005v-114.005h-114.005l-55.979-57.003h-86.016c-18.66 0-34.645 6.656-48.014 20.025l-17.977 17.010c-4.665 5.291-8.988 12.8-13.028 22.471s-5.973 18.148-5.973 25.486v57.003c0 18.66 6.315 34.987 19.001 48.981l339.968 339.001c-11.947 33.337-17.977 65.365-17.977 96.028 0 77.312 27.989 144.327 84.025 200.988 53.988 55.353 121.003 83.001 200.988 83.001 77.995 0 144.668-27.648 200.021-83.001 55.979-55.979 83.968-122.994 83.968-200.988 0-79.36-27.989-146.66-84.025-202.012-25.998-25.316-55.979-45.511-89.998-60.473s-68.665-22.528-103.993-22.528c-34.645 0-68.665 6.030-102.002 17.977zM654.108 682.723c0-23.666 8.306-43.861 24.974-60.473s36.807-24.974 60.473-24.974 43.861 8.306 60.473 24.974 24.974 36.807 24.974 60.473-8.306 43.861-24.974 60.473-36.807 24.974-60.473 24.974-43.861-8.306-60.473-24.974-24.974-36.807-24.974-60.473z" />
<glyph unicode="&#x54;" glyph-name="totop" data-tags="totop" d="M512 910.222c7.908 0 254.066-254.521 244.281-254.578-44.316-0.341-186.596 0-186.596 0v-533.049c0.057-36.295-25.828-65.707-57.685-65.707-31.915 0-57.742 29.412-57.742 65.707v533.049c0 0-112.924-0.341-186.539 0-9.785 0 236.373 254.578 244.281 254.578z" />
<glyph unicode="&#x56;" glyph-name="left2" data-tags="left2" d="M682.667 853.333l-341.333-398.222 341.333-398.222z" />
<glyph unicode="&#x58;" glyph-name="error-page" data-tags="error-page" d="M910.222 705.422l-147.911 142.222-250.311-250.311-250.311 256-147.911-147.911 250.311-250.311-250.311-256 142.222-142.222 256 250.311 250.311-250.311 142.222 142.222-250.311 256z" />
<glyph unicode="&#x59;" glyph-name="youtube2" data-tags="youtube2" d="M896.512 656.384c-0.455 2.958-1.081 5.803-1.877 8.59-0.341 1.308-0.796 2.674-1.252 3.925-10.126 29.127-38.571 50.176-72.135 50.176h5.234c0 0-134.94 19.684-314.482 20.48-179.484-0.796-314.482-20.48-314.482-20.48h5.234c-33.564 0-62.009-21.049-72.192-50.176-0.398-1.252-0.796-2.617-1.195-3.925-0.796-2.788-1.422-5.689-1.877-8.59-4.892-33.849-12.971-101.376-13.71-182.272 0.74-80.953 8.818-148.423 13.71-182.272 0.455-2.958 1.081-5.803 1.877-8.59 0.398-1.365 0.796-2.617 1.252-3.982 10.183-29.127 38.628-50.176 72.192-50.176h-5.291c0 0 134.94-19.684 314.482-20.48 179.541 0.796 314.482 20.48 314.482 20.48h-5.234c33.564 0 62.009 20.992 72.192 50.176 0.455 1.308 0.853 2.617 1.252 3.982 0.796 2.788 1.422 5.689 1.877 8.59 4.892 33.849 12.971 101.319 13.71 182.272-0.796 80.896-8.875 148.423-13.767 182.272zM629.931 457.614l-160.768-112.868c-3.356-2.389-7.396-3.584-11.378-3.584-3.015 0-6.030 0.683-8.761 2.048-6.485 3.186-10.581 9.671-10.581 16.725v225.678c0 7.054 4.096 13.483 10.581 16.725 6.428 3.129 14.222 2.56 20.139-1.593l160.825-112.868c5.006-3.527 7.964-9.159 7.964-15.132-0.057-6.030-2.958-11.605-8.021-15.132z" />
<glyph unicode="&#x5a;" glyph-name="right2" data-tags="right2" d="M341.333 853.333l341.333-398.222-341.333-398.222z" />
<glyph unicode="&#x62;" glyph-name="callback" data-tags="callback" d="M252.871 807.879c85.561-56.036 106.894-183.922 64.512-223.801-2.219-2.332-4.665-5.689-7.282-7.225-7.111-4.836-15.929-8.476-25.771-10.183-18.489-3.186-35.669 1.252-46.194 10.297 13.767-72.704 53.589-152.405 119.296-217.884 67.129-67.015 147.342-107.349 219.534-119.979-2.844 8.647-4.722 18.489-4.722 29.070 0 22.357 7.396 41.643 18.204 52.053 20.651 23.381 80.043 21.39 140.174-6.485 65.82-30.492 104.505-81.92 93.355-111.047-1.479-3.186-9.216-46.876-46.308-78.734-81.977-82.887-306.631-15.531-485.319 165.433-178.631 180.85-243.314 413.355-159.403 494.364 37.035 34.759 76.857 51.086 119.922 24.121zM728.633 746.553c0 0 0-82.375 0-85.106 241.55-38.457 220.956-256.683 220.956-256.683s-49.436 163.328-218.226 126.293v-83.74l-209.977 148.252 207.246 150.983z" />
<glyph unicode="&#x63;" glyph-name="call" data-tags="call" d="M303.844 805.831c85.447-55.751 106.724-182.898 64.341-222.492-2.219-2.276-13.426-13.596-32.996-17.294-18.432-3.129-35.612 1.195-46.080 10.24 13.767-72.306 53.476-151.495 119.125-216.633 67.015-66.617 147.115-106.724 219.193-119.239-2.844 8.59-4.665 18.375-4.665 28.9 0 22.244 7.339 41.415 18.204 51.769 20.651 23.268 79.929 21.276 140.004-6.428 65.707-30.322 104.391-81.465 93.241-110.421-1.479-3.129-9.216-46.592-46.251-78.279-81.863-82.432-306.176-15.474-484.58 164.466-178.404 179.769-242.972 410.908-159.175 491.463 36.864 34.532 76.686 50.745 119.637 23.95z" />
<glyph unicode="&#x64;" glyph-name="doc" data-tags="doc" d="M828.928 56.889h-570.14c-20.594 0-31.232 10.638-31.232 29.753v762.596c0 13.028 10.923 23.609 24.405 23.609 0 0 219.648 0 366.933 0 0.455 0 0-231.538 0-231.538 0-10.126 11.435-15.701 25.372-15.701 0 0 209.067-0.057 209.067 0.057 0-121.401 0-545.166 0-545.166 0-13.028-10.923-23.609-24.405-23.609zM852.423 682.667h-141.995c-15.303 0-27.762 12.402-27.762 27.648v142.108c0 15.303 185.116-169.756 169.756-169.756z" />
<glyph unicode="&#x66;" glyph-name="facebook" data-tags="facebook" d="M658.546 575.374h-108.032v70.884c0 26.624 17.636 32.825 30.037 32.825s76.231 0 76.231 0v116.964l-104.96 0.398c-116.565 0-143.076-87.268-143.076-143.076v-77.995h-67.413v-120.548h67.413c0-154.681 0-341.106 0-341.106h141.767c0 0 0 188.245 0 341.106h95.63l12.402 120.548z" />
<glyph unicode="&#x67;" glyph-name="googleplus" data-tags="googleplus" d="M894.35 519.282h-114.574v114.574c0 8.761-7.111 15.872-15.815 15.872h-32.597c-8.761 0-15.872-7.111-15.872-15.872v-114.574h-114.574c-8.704 0-15.872-7.111-15.872-15.872v-32.654c0-8.761 7.111-15.872 15.872-15.872h114.574v-114.574c0-8.761 7.111-15.872 15.872-15.872h32.597c8.761 0 15.815 7.111 15.815 15.872v114.631h114.574c8.761 0 15.872 7.054 15.872 15.815v32.654c0 8.761-7.111 15.872-15.872 15.872zM517.234 418.816c-24.121 17.067-46.023 42.098-46.421 49.778 0 13.995 1.252 20.708 32.654 45.17 40.619 31.801 62.976 73.614 62.976 117.76 0 40.050-12.231 75.605-33.052 100.58h16.156c3.356 0 6.599 1.024 9.33 3.015l45.056 32.654c5.575 3.982 7.964 11.15 5.803 17.692s-8.192 10.98-15.076 10.98h-201.614c-22.016 0-44.43-3.868-66.446-11.435-73.444-25.372-124.814-87.95-124.814-152.235 0-91.022 70.542-160.085 164.807-162.247-1.877-7.168-2.788-14.279-2.788-21.276 0-14.052 3.584-27.307 10.866-40.164-0.853 0-1.707 0-2.617 0-89.884 0-171.008-44.089-201.785-109.739-8.021-17.067-12.117-34.304-12.117-51.371 0-16.555 4.267-32.54 12.572-47.502 19.342-34.645 60.928-61.497 117.077-75.662 29.070-7.282 60.245-11.036 92.615-11.036 29.070 0 56.775 3.755 82.432 11.207 79.929 23.211 131.527 81.977 131.527 149.902 0 65.195-20.935 104.164-77.141 143.929zM262.599 269.653c0 47.388 60.188 88.974 128.853 88.974h1.82c14.905-0.171 29.468-2.389 43.236-6.599 4.665-3.243 55.182-14.279 72.249-68.21 4.551-14.393 18.546-105.074-128.796-106.098-65.764-0.455-117.362 40.391-117.362 91.932zM325.063 717.483c10.752 12.231 24.747 18.716 40.562 18.716l1.764-0.057c44.544-1.308 87.211-50.972 95.061-110.706 4.38-33.451-3.015-64.853-19.854-84.025-10.752-12.231-24.633-18.716-41.017-18.716h-0.74c-43.634 1.308-87.211 52.907-95.004 112.526-4.38 33.337 2.617 63.317 19.228 82.261z" />
<glyph unicode="&#x68;" glyph-name="office" data-tags="office" d="M904.306 481.337l-392.306 371.996-392.306-371.996c-7.908-7.509-7.908-19.627 0-27.136s20.708-7.509 28.615 0l363.691 344.804 363.634-344.86c3.982-3.755 9.159-5.632 14.336-5.632s10.354 1.877 14.336 5.632c7.908 7.509 7.908 19.684 0 27.193zM224.54 432.355v-294.855c0-13.084 11.264-23.723 25.031-23.723h524.914c13.767 0 24.974 10.638 24.974 23.723v294.855l-287.46 272.555-287.46-272.555z" />
<glyph unicode="&#x69;" glyph-name="instagram" data-tags="instagram" d="M512 867.8c136.8 0 153-0.6 206.8-3 50-2.2 77-10.6 95-17.6 23.8-9.2 41-20.4 58.8-38.2 18-18 29-35 38.4-58.8 7-18 15.4-45.2 17.6-95 2.4-54 3-70.2 3-206.8s-0.6-153-3-206.8c-2.2-50-10.6-77-17.6-95-9.2-23.8-20.4-41-38.2-58.8-18-18-35-29-58.8-38.4-18-7-45.2-15.4-95-17.6-54-2.4-70.2-3-206.8-3s-153 0.6-206.8 3c-50 2.2-77 10.6-95 17.6-23.8 9.2-41 20.4-58.8 38.2-18 18-29 35-38.4 58.8-7 18-15.4 45.2-17.6 95-2.4 54-3 70.2-3 206.8s0.6 153 3 206.8c2.2 50 10.6 77 17.6 95 9.2 23.8 20.4 41 38.2 58.8 18 18 35 29 58.8 38.4 18 7 45.2 15.4 95 17.6 53.8 2.4 70 3 206.8 3zM512 960c-139 0-156.4-0.6-211-3-54.4-2.4-91.8-11.2-124.2-23.8-33.8-13.2-62.4-30.6-90.8-59.2-28.6-28.4-46-57-59.2-90.6-12.6-32.6-21.4-69.8-23.8-124.2-2.4-54.8-3-72.2-3-211.2s0.6-156.4 3-211c2.4-54.4 11.2-91.8 23.8-124.2 13.2-33.8 30.6-62.4 59.2-90.8 28.4-28.4 57-46 90.6-59 32.6-12.6 69.8-21.4 124.2-23.8 54.6-2.4 72-3 211-3s156.4 0.6 211 3c54.4 2.4 91.8 11.2 124.2 23.8 33.6 13 62.2 30.6 90.6 59s46 57 59 90.6c12.6 32.6 21.4 69.8 23.8 124.2 2.4 54.6 3 72 3 211s-0.6 156.4-3 211c-2.4 54.4-11.2 91.8-23.8 124.2-12.6 34-30 62.6-58.6 91-28.4 28.4-57 46-90.6 59-32.6 12.6-69.8 21.4-124.2 23.8-54.8 2.6-72.2 3.2-211.2 3.2v0zM512 711c-145.2 0-263-117.8-263-263s117.8-263 263-263 263 117.8 263 263c0 145.2-117.8 263-263 263zM512 277.4c-94.2 0-170.6 76.4-170.6 170.6s76.4 170.6 170.6 170.6c94.2 0 170.6-76.4 170.6-170.6s-76.4-170.6-170.6-170.6zM846.8 721.4c0-33.91-27.49-61.4-61.4-61.4s-61.4 27.49-61.4 61.4c0 33.91 27.49 61.4 61.4 61.4s61.4-27.49 61.4-61.4z" />
<glyph unicode="&#x6b;" glyph-name="calendar" data-tags="calendar" d="M863.403 739.555h-66.958v-56.889c0-26.624-31.004-56.889-56.889-56.889h-113.778c-25.884 0-56.889 30.265-56.889 56.889v56.889h-113.778v-56.889c0-26.624-29.98-56.889-55.865-56.889h-114.802c-25.884 0-56.889 30.265-56.889 56.889v56.889h-66.901c-25.884 0-46.876-21.561-46.876-48.185v-586.297c0-26.624 20.992-48.185 46.876-48.185h702.748c25.828 0 46.82 21.561 46.82 48.185v586.297c0.057 26.624-20.935 48.185-46.82 48.185zM777.557 149.276c0-13.312-10.468-24.121-23.438-24.121h-484.124c-12.914 0-23.438 10.809-23.438 24.121v281.714c0 13.312 10.524 24.121 23.438 24.121h484.124c12.914 0 23.438-10.809 23.438-24.121v-281.714zM640 869.319h85.276c7.851 0 14.222-5.234 14.222-11.662v-163.385c0.057-6.372-6.315-11.605-14.165-11.605h-85.333c-7.851 0-14.222 5.234-14.222 11.662v163.328c0.057 6.428 6.372 11.662 14.222 11.662zM299.634 869.319h85.276c7.851 0 14.222-5.234 14.222-11.662v-163.385c0.057-6.372-6.372-11.605-14.222-11.605h-85.276c-7.851 0-14.222 5.234-14.222 11.662v163.328c0.057 6.428 6.372 11.662 14.222 11.662z" />
<glyph unicode="&#x6c;" glyph-name="download" data-tags="download" d="M916.708 415.801c-27.876 0-50.46-24.121-50.46-53.817v-254.407h-708.437v254.407c0 29.696-22.585 53.817-50.46 53.817s-50.46-24.064-50.46-53.76v-308.224c0-29.696 22.585-53.817 50.46-53.817h809.358c27.819 0 50.404 24.121 50.404 53.817v308.224c0 29.696-22.585 53.76-50.404 53.76zM512 216.178c7.908 0 254.066 239.957 244.281 240.071-44.316 0.341-186.596 0-186.596 0v323.755c0.057 34.19-25.771 61.952-57.685 61.952s-57.742-27.762-57.742-61.952v-323.755c0 0-112.924 0.341-186.539 0-9.785-0.057 236.373-240.071 244.281-240.071z" />
<glyph unicode="&#x6d;" glyph-name="message" data-tags="message" d="M56.889 696.946v42.667c0 31.346 27.876 56.832 62.236 56.832h785.692c34.418 0 62.293-25.486 62.293-56.832v-42.667c0 0-314.652-156.729-400.668-197.177-32.768-15.36-78.791-16.612-110.706 0-67.982 35.385-398.848 197.177-398.848 197.177zM967.111 625.835v-455.168c0-31.46-27.876-56.889-62.236-56.889h-785.749c-34.361-0.057-62.236 25.429-62.236 56.832v455.225c0 0 331.321-166.172 401.579-199.111 32.597-15.246 77.426-14.62 110.706 0 86.3 37.945 397.938 199.111 397.938 199.111z" />
<glyph unicode="&#x6e;" glyph-name="notice" data-tags="notice" d="M910.222 661.333h-148.309c-13.312 0-24.121 11.093-24.121 24.804v167.14l172.43-191.943zM707.755 605.411c-13.767 0-24.121 14.222-24.121 24.804 0 0 1.024 223.118 0.569 223.118-145.579-0.057-318.748-0.057-318.748-0.057-13.312 0-24.121-11.093-24.121-24.804v-392.135l92.046 92.046c10.752 10.752 25.429 16.896 40.277 16.896v0c14.165 0 27.42-5.404 37.205-15.246l71.225-71.225c20.878-20.935 20.139-55.694-1.65-77.483l-239.104-239.161v-54.044c0-20.082 10.524-31.232 30.891-31.232h512.114c13.312 0 25.884 11.093 25.884 24.804 0 0 0 396.459 0 523.776 0-0.114-202.468-0.057-202.468-0.057zM473.6 516.722c-7.111 0-14.45-2.901-20.139-8.59l-46.137-46.137 106.837-106.837 46.194 46.251c10.752 10.752 11.492 27.42 1.65 37.262l-71.282 71.168c-4.608 4.608-10.752 6.884-17.124 6.884zM122.823 177.55l-9.045-120.661 115.883 13.824 28.615 28.615-106.837 106.837zM271.242 112.255l-106.841 106.841 216.98 216.98 106.841-106.841-216.98-216.98z" />
<glyph unicode="&#x6f;" glyph-name="logout" data-tags="logout" d="M682.667 0h-568.889c-31.289 0-56.889 25.6-56.889 56.889v398.222c0 31.289 25.6 56.889 56.889 56.889h568.889c31.289 0 56.889-25.6 56.889-56.889v-398.222c0-31.289-25.6-56.889-56.889-56.889zM568.889 568.889v113.778c0 94.094 76.572 170.667 170.667 170.667s170.667-76.572 170.667-170.667v-113.778h56.889v113.778c0 125.156-102.4 227.556-227.556 227.556s-227.556-102.4-227.556-227.556v-113.778h56.889z" />
<glyph unicode="&#x70;" glyph-name="print" data-tags="print" d="M735.801 853.333h-447.716c-13.824 0-25.031-11.264-25.031-25.088v-408.86c0-13.881 11.207-25.088 25.031-25.088h447.659c13.824 0 25.031 11.264 25.031 25.088v408.86c0.057 13.824-11.15 25.088-24.974 25.088zM685.852 460.572c0-11.093-8.932-20.025-20.025-20.025h-308.053c-11.036 0-20.025 8.988-20.025 20.025v298.496c0 11.036 8.932 20.025 20.025 20.025h308.053c11.036 0 20.025-8.988 20.025-20.025v-298.496zM760.604 305.266v-223.289c0-13.881-11.207-25.088-25.031-25.088h-447.488c-13.824 0-25.031 11.264-25.031 25.088v223.289h497.55zM166.172 579.755h691.655c48.014 0 52.395-105.017 52.395-118.044v-210.261c0-13.084-11.207-23.666-25.031-23.666h-75.492l-0.228 140.459h-595.968l-0.171-140.459h-74.524c-13.824 0-25.031 10.581-25.031 23.666v210.261c0 13.028 14.62 118.044 52.395 118.044z" />
<glyph unicode="&#x71;" glyph-name="menu-icon" data-tags="menu-icon" d="M56.889 796.444h910.222v-113.778h-910.222v113.778zM56.889 512h910.222v-113.778h-910.222v113.778zM56.889 227.555h910.222v-113.778h-910.222v113.778z" />
<glyph unicode="&#x72;" glyph-name="reload" data-tags="reload" d="M967.111 910.051v-305.095h-325.063zM130.617 124.928l-73.728-69.12v305.095h325.461zM543.744 909.141c-250.766 16.498-468.252-160.996-485.717-396.345-1.252-16.725 12.174-31.346 30.151-32.54s33.394 11.492 34.702 28.331c15.019 201.387 201.785 353.792 416.37 339.684 143.701-9.444 263.566-91.307 322.844-204.743l73.216-4.836c-62.236 148.708-210.603 258.56-391.566 270.45zM936.846 485.831c-17.92 1.138-33.451-11.492-34.759-28.331-15.019-201.387-202.012-353.792-416.825-339.684-143.872 9.444-263.851 91.307-323.243 204.743l-73.273 4.836c62.293-148.594 210.83-258.503 392.021-270.393 251.051-16.498 468.764 160.996 486.286 396.345 1.195 16.725-12.345 31.289-30.208 32.484z" />
<glyph unicode="&#x73;" glyph-name="search" data-tags="search" d="M291.401 296.318l-185.783-185.783c-24.503-24.503-24.503-64.146 0-88.649s64.146-24.503 88.649 0l185.783 185.783c-33.938 24.869-63.854 54.711-88.649 88.649zM620.105 881.241c-190.464 0-344.795-154.405-344.795-344.795 0-190.464 154.405-344.795 344.795-344.795s344.795 154.405 344.795 344.795c0.073 190.391-154.331 344.795-344.795 344.795zM620.105 254.334c-155.794 0-282.112 126.318-282.112 282.112s126.318 282.112 282.112 282.112 282.112-126.318 282.112-282.112-126.318-282.112-282.112-282.112z" />
<glyph unicode="&#x74;" glyph-name="twitter" data-tags="twitter" d="M910.222 665.486c-28.331-12.572-58.766-21.049-90.738-24.86 32.654 19.513 57.685 50.517 69.461 87.381-30.549-18.091-64.341-31.232-100.295-38.343-28.843 30.72-69.86 49.892-115.314 49.892-87.268 0-157.98-70.713-157.98-157.98 0-12.402 1.422-24.405 4.096-36.011-131.3 6.599-247.694 69.518-325.632 165.092-13.596-23.324-21.39-50.46-21.39-79.417 0-54.784 27.876-103.14 70.258-131.47-25.884 0.796-50.233 7.908-71.509 19.74 0-0.683 0-1.308 0-1.991 0-76.516 54.443-140.345 126.748-154.908-13.255-3.584-27.193-5.518-41.643-5.518-10.183 0-20.082 0.967-29.753 2.844 20.139-62.748 78.45-108.43 147.57-109.682-54.044-42.382-122.197-67.641-196.21-67.641-12.743 0-25.316 0.74-37.66 2.219 69.916-44.885 152.917-71.054 242.176-71.054 290.588 0 449.479 240.697 449.479 449.479 0 6.827-0.114 13.653-0.455 20.423 30.834 22.3 57.628 50.119 78.791 81.806z" />
<glyph unicode="&#x76;" glyph-name="video" data-tags="video" d="M672.142 427.292l190.464-142.848v380.928l-190.464-142.848zM862.606 665.372h47.616v-380.928h-47.616v380.928zM625.778 635.051c0 26.283-21.333 47.616-47.616 47.616h-416.768c-26.283 0-47.616-21.333-47.616-47.616v-359.879c0-26.283 21.333-47.616 47.616-47.616h416.768c26.283 0 47.616 21.333 47.616 47.616v359.879zM338.887 522.524h-95.232v95.232h95.232v-95.232z" />
<glyph unicode="&#x78;" glyph-name="close" data-tags="close" d="M867.897 166.855l-288.54 288.54 288.654 288.597c18.318 18.489 18.318 48.697-0.171 67.3-18.034 17.92-49.266 17.92-67.3-0.057l-288.484-288.597-288.54 288.597c-18.034 17.92-49.209 17.92-67.356-0.057-18.489-18.546-18.489-48.697 0-67.3l288.54-288.54-288.54-288.54c-8.988-8.932-13.938-20.935-13.938-33.678s4.949-24.69 14.052-33.735c18.034-17.749 48.868-17.977 67.243 0.114l288.54 288.54 288.654-288.597c8.988-8.932 20.935-13.824 33.564-13.824 12.686 0 24.633 4.892 33.735 13.938 18.375 18.546 18.375 48.697-0.114 67.3z" />
<glyph unicode="&#x79;" glyph-name="youtube" data-tags="youtube" d="M764.7 464.839h-505.458c-80.327 0-145.465-65.195-145.465-145.522v-116.907c0-80.384 65.138-145.522 145.465-145.522h505.458c80.384 0 145.522 65.138 145.522 145.465v116.907c0 80.384-65.138 145.579-145.522 145.579zM365.454 373.817h-46.99v-233.529h-45.397v233.529h-46.99v39.708h139.378v-39.708zM498.233 140.288h-40.277v22.073c-7.509-8.192-15.189-14.393-23.268-18.603-8.021-4.38-15.815-6.428-23.381-6.428-9.33 0-16.27 2.958-21.049 8.988-4.665 6.030-7.054 14.962-7.054 27.022v168.562h40.277v-154.624c0-4.779 0.853-8.192 2.503-10.297 1.764-2.219 4.494-3.186 8.306-3.186 2.901 0 6.713 1.422 11.207 4.21 4.551 2.844 8.704 6.428 12.516 10.866v153.031h40.277v-201.614zM644.38 181.931c0-14.222-3.129-25.202-9.5-32.825-6.258-7.623-15.474-11.378-27.364-11.378-7.908 0-14.962 1.422-21.106 4.38-6.144 2.901-11.947 7.452-17.237 13.653v-15.417h-40.676v273.18h40.732v-88.007c5.461 6.087 11.264 10.809 17.237 13.995 6.144 3.243 12.345 4.779 18.603 4.779 12.743 0 22.471-4.267 29.184-12.857 6.77-8.59 10.126-21.163 10.126-37.66v-111.844zM784.1 236.259h-77.084v-37.945c0-10.581 1.308-17.977 3.925-22.073 2.674-4.096 7.225-6.144 13.653-6.144 6.713 0 11.321 1.764 13.995 5.234 2.617 3.527 4.039 11.15 4.039 22.983v9.159h41.472v-10.354c0-20.651-5.006-36.238-15.189-46.763-10.012-10.411-25.145-15.588-45.17-15.588-18.034 0-32.313 5.518-42.667 16.612-10.297 10.98-15.588 26.283-15.588 45.739v90.567c0 17.408 5.746 31.744 17.124 42.78 11.378 10.98 26.055 16.498 44.089 16.498 18.432 0 32.597-5.063 42.553-15.303 9.899-10.24 14.848-24.86 14.848-43.975v-51.428zM725.049 311.637c-6.428 0-10.98-1.82-13.824-5.575-2.844-3.527-4.153-9.614-4.153-18.091v-20.366h35.612v20.366c0 8.476-1.422 14.507-4.267 18.091-2.731 3.755-7.282 5.575-13.369 5.575zM586.069 312.32c-2.844 0-5.746-0.626-8.533-1.934s-5.575-3.413-8.306-6.144v-125.611c3.243-3.243 6.428-5.746 9.557-7.168 3.129-1.365 6.315-2.162 9.728-2.162 4.949 0 8.59 1.422 10.866 4.324 2.276 2.844 3.47 7.452 3.47 13.881v104.107c0 6.827-1.365 11.947-4.21 15.474-2.958 3.47-7.111 5.234-12.572 5.234zM325.461 552.277h51.029v124.928l59.449 176.128h-51.883l-31.63-120.32h-3.186l-33.166 120.32h-51.428l60.814-181.76zM505.116 546.702c20.594 0 36.807 5.404 48.583 16.213 11.719 10.866 17.579 25.714 17.579 44.715v114.688c0 16.896-5.973 30.834-17.92 41.529-12.004 10.752-27.42 16.1-46.194 16.1-20.594 0-37.035-5.12-49.209-15.303-12.231-10.126-18.318-23.78-18.318-41.074v-115.086c0-18.887 5.973-33.849 17.863-45.056 11.89-11.15 27.762-16.725 47.616-16.725zM486.343 725.276c0 4.836 1.707 8.704 5.12 11.776 3.527 3.015 7.964 4.437 13.54 4.437 6.030 0 10.866-1.479 14.564-4.437 3.641-3.072 5.518-6.94 5.518-11.776v-121.003c0-5.916-1.82-10.638-5.461-14.052-3.641-3.356-8.476-5.063-14.62-5.063-5.973 0-10.638 1.593-13.824 5.006-3.243 3.356-4.836 8.021-4.836 14.108v121.003zM639.772 549.035c8.533 0 17.294 2.446 26.283 7.111 9.102 4.722 17.806 11.662 26.112 20.708v-24.576h45.34v222.094h-45.34v-168.562c-4.21-4.836-8.875-8.761-13.938-11.947-5.12-3.129-9.33-4.665-12.686-4.665-4.267 0-7.396 1.138-9.216 3.584-1.877 2.332-2.958 6.144-2.958 11.321v170.268h-45.284v-185.572c0-13.255 2.674-23.154 7.964-29.696 5.348-6.656 13.198-10.069 23.723-10.069z" />
<glyph unicode="&#xe900;" glyph-name="mitarbeitersuche" data-tags="mitarbeitersuche" d="M932.978 846.222h-836.267c-17.067 0-28.444-11.378-28.444-28.444v-722.489c0-17.067 11.378-28.444 28.444-28.444h170.667c17.067 0 28.444 11.378 28.444 28.444v56.889c0 17.067 11.378 28.444 28.444 28.444s28.444-11.378 28.444-28.444v-56.889c0-17.067 11.378-28.444 28.444-28.444h250.311c17.067 0 28.444 11.378 28.444 28.444v56.889c0 17.067 11.378 28.444 28.444 28.444s28.444-11.378 28.444-28.444v-56.889c0-17.067 11.378-28.444 28.444-28.444h170.667c17.067 0 28.444 11.378 28.444 28.444v722.489c17.067 17.067 5.689 28.444-11.378 28.444zM904.533 123.733h-108.089v28.444c0 45.511-39.822 85.333-85.333 85.333s-85.333-39.822-85.333-85.333v-22.756h-204.8v22.756c0 45.511-39.822 85.333-85.333 85.333s-85.333-39.822-85.333-85.333v-22.756h-125.156v654.222h768v-659.911h11.378zM284.444 561.778c0-5.689 5.689-11.378 11.378-11.378v0c0-34.133 28.444-73.956 68.267-73.956 34.133 0 62.578 34.133 68.267 73.956v0c5.689 0 11.378 5.689 11.378 11.378s-5.689 11.378-5.689 11.378c0 5.689 5.689 17.067 5.689 28.444 0 39.822-34.133 79.644-73.956 79.644s-79.644-39.822-79.644-85.333c0-11.378 0-17.067 5.689-28.444-5.689 5.689-11.378 0-11.378-5.689zM204.8 334.222h329.956c5.689 0 5.689 5.689 5.689 5.689v28.444c-28.444 34.133-68.267 56.889-113.778 62.578 0 0 0 0-5.689 0v0c0 0 0 0-5.689 0-11.378 0-28.444 0-45.511 0s-34.133 5.689-45.511 11.378c0 0 0 0-5.689 0v0 0c-39.822-11.378-79.644-28.444-119.467-62.578v-28.444c0-11.378 0-17.067 5.689-17.067zM591.644 442.311h227.556c5.689 0 11.378 5.689 11.378 11.378s-5.689 11.378-11.378 11.378h-227.556c-5.689 0-11.378-5.689-11.378-11.378s5.689-11.378 11.378-11.378zM591.644 539.022h227.556c5.689 0 11.378 5.689 11.378 11.378 0 11.378-5.689 11.378-11.378 11.378h-227.556c-5.689 0-11.378-5.689-11.378-11.378 0 0 5.689-11.378 11.378-11.378z" />
<glyph unicode="&#xe901;" glyph-name="mitarbeitersuche2" data-tags="mitarbeitersuche2" d="M307.2 641.422c0-17.067 11.378-28.444 28.444-28.444 0 0 0 0 0 0 5.689-73.956 62.578-147.911 136.533-147.911 68.267 0 130.844 73.956 136.533 147.911 0 0 0 0 0 0 17.067 0 28.444 11.378 28.444 28.444 0 11.378-5.689 22.756-17.067 22.756 5.689 17.067 5.689 34.133 5.689 51.2 0 91.022-68.267 164.978-153.6 164.978s-159.289-68.267-159.289-159.289c0-17.067 5.689-34.133 5.689-51.2-5.689-5.689-11.378-17.067-11.378-28.444zM466.489 385.422c-34.133 0-68.267 5.689-96.711 17.067 0 0-5.689 0-5.689 0h-5.689c0 0 0 0-5.689 0-85.333-22.756-164.978-62.578-227.556-125.156 0 0-5.689-5.689-5.689-11.378v-45.511c0-5.689 5.689-17.067 17.067-17.067h375.467c-17.067 34.133-28.444 68.267-28.444 108.089 0 22.756 5.689 51.2 11.378 73.956-11.378 0-17.067 0-28.444 0zM955.733 38.4l-119.467 159.289h-5.689l-11.378-11.378-11.378 17.067c28.444 28.444 45.511 68.267 45.511 108.089 0 85.333-68.267 159.289-159.289 159.289-85.333 0-159.289-68.267-159.289-159.289 0-85.333 68.267-159.289 159.289-159.289 28.444 0 51.2 5.689 73.956 17.067l17.067-17.067-11.378-11.378v-5.689c0 0 113.778-147.911 125.156-153.6 5.689-5.689 22.756-5.689 22.756-5.689s22.756 11.378 34.133 22.756c11.378 22.756 0 39.822 0 39.822zM597.333 311.467c0 56.889 45.511 102.4 102.4 102.4s102.4-45.511 102.4-102.4c0-56.889-45.511-102.4-102.4-102.4s-102.4 45.511-102.4 102.4z" />
<glyph unicode="&#xe902;" glyph-name="schwarzesbrett" data-tags="schwarzesbrett" d="M307.2 27.022c0-17.067 5.689-34.133 22.756-34.133 0 0 5.689 0 5.689 0 11.378 0 22.756 5.689 28.444 22.756l62.578 187.733h-91.022l-28.444-176.356zM682.667 203.378h-91.022l62.578-187.733c5.689-17.067 22.756-22.756 39.822-22.756 17.067 5.689 28.444 17.067 22.756 34.133l-34.133 176.356zM864.711 857.6h-216.178v11.378c0 17.067-11.378 28.444-28.444 28.444s-28.444-11.378-28.444-28.444v-11.378h-159.289v11.378c0 17.067-11.378 28.444-28.444 28.444s-28.444-11.378-28.444-28.444v-11.378h-216.178c-17.067 0-28.444-11.378-28.444-28.444v-551.822c0-17.067 11.378-28.444 28.444-28.444h711.111c17.067 0 28.444 11.378 28.444 28.444v546.133c0 17.067-11.378 34.133-34.133 34.133zM836.267 311.467h-648.533v483.556h648.533v-483.556zM227.556 749.511h568.889v-392.533h-568.889v392.533z" />
<glyph unicode="&#xe903;" glyph-name="calendar_Eventteaser" data-tags="calendar_Eventteaser" d="M417.477 440.123h-43.323c-7.877 0-11.815-3.938-11.815-11.815v-43.323c0-7.877 3.938-11.815 11.815-11.815h43.323c7.877 0 11.815 3.938 11.815 11.815v43.323c0 7.877-3.938 11.815-11.815 11.815zM527.754 440.123h-43.323c-7.877 0-11.815-3.938-11.815-11.815v-43.323c0-7.877 3.938-11.815 11.815-11.815h43.323c7.877 0 11.815 3.938 11.815 11.815v43.323c0 7.877-7.877 11.815-11.815 11.815zM634.092 440.123h-43.323c-7.877 0-11.815-3.938-11.815-11.815v-43.323c0-7.877 3.938-11.815 11.815-11.815h43.323c7.877 0 11.815 3.938 11.815 11.815v43.323c0 7.877-3.938 11.815-11.815 11.815zM417.477 333.785h-43.323c-7.877 0-11.815-3.938-11.815-11.815v-43.323c0-7.877 3.938-11.815 11.815-11.815h43.323c7.877 0 11.815 3.938 11.815 11.815v43.323c0 7.877-3.938 11.815-11.815 11.815zM527.754 333.785h-43.323c-7.877 0-11.815-3.938-11.815-11.815v-43.323c0-7.877 3.938-11.815 11.815-11.815h43.323c7.877 0 11.815 3.938 11.815 11.815v43.323c0 7.877-7.877 11.815-11.815 11.815zM634.092 333.785h-43.323c-7.877 0-11.815-3.938-11.815-11.815v-43.323c0-7.877 3.938-11.815 11.815-11.815h43.323c7.877 0 11.815 3.938 11.815 11.815v43.323c0 7.877-3.938 11.815-11.815 11.815zM724.677 660.677v-63.015c0-27.569-23.631-51.2-55.138-51.2h-35.446c-31.508 0-55.138 23.631-55.138 51.2v63.015h-153.6v-63.015c0-27.569-23.631-51.2-55.138-51.2h-31.508c-31.508 0-55.138 23.631-55.138 51.2v63.015c-27.569 0-47.262-23.631-47.262-47.262v-378.092c0-27.569 23.631-47.262 47.262-47.262h433.231c27.569 0 47.262 19.692 47.262 47.262v378.092c7.877 27.569-15.754 47.262-39.385 47.262zM708.923 258.954c0-11.815-7.877-19.692-19.692-19.692h-366.277c-11.815 0-19.692 7.877-19.692 19.692v192.985c0 11.815 7.877 19.692 19.692 19.692h362.338c11.815 0 19.692-7.877 19.692-19.692v-192.985h3.938zM338.708 577.969h35.446c11.815 0 19.692 7.877 19.692 19.692v106.338c0 11.815-7.877 19.692-19.692 19.692h-35.446c-11.815 0-19.692-7.877-19.692-19.692v-106.338c3.938-11.815 11.815-19.692 19.692-19.692zM634.092 577.969h35.446c11.815 0 19.692 7.877 19.692 19.692v106.338c0 11.815-7.877 19.692-19.692 19.692h-35.446c-11.815 0-19.692-7.877-19.692-19.692v-106.338c0-11.815 11.815-19.692 19.692-19.692z" />
<glyph unicode="&#xe904;" glyph-name="maps_eventteaser" data-tags="maps_eventteaser" d="M645.908 558.277c0 7.877-3.938 11.815-7.877 19.692-31.508 78.769-98.462 106.338-153.6 106.338-70.892 0-153.6-51.2-161.477-153.6v-19.692c0 0 0-7.877 0-11.815 7.877-47.262 43.323-102.4 70.892-149.662 31.508-51.2 63.015-102.4 94.523-157.538 19.692 35.446 39.385 66.954 55.138 102.4 3.938 7.877 11.815 19.692 15.754 27.569s11.815 11.815 11.815 19.692c31.508 55.138 78.769 114.215 78.769 169.354v23.631c3.938 3.938-3.938 23.631-3.938 23.631zM488.369 455.877c-19.692 0-43.323 11.815-55.138 39.385 0 3.938 0 15.754 0 15.754v11.815c0 39.385 31.508 55.138 59.077 55.138 35.446 0 59.077-27.569 59.077-63.015s-31.508-59.077-63.015-59.077z" />
<glyph unicode="&#xe905;" glyph-name="pencil" data-tags="pencil" d="M864 960c88.364 0 160-71.634 160-160 0-36.020-11.91-69.258-32-96l-64-64-224 224 64 64c26.742 20.090 59.978 32 96 32zM64 224l-64-288 288 64 592 592-224 224-592-592zM715.578 596.422l-448-448-55.156 55.156 448 448 55.156-55.156z" />
<glyph unicode="&#xe906;" glyph-name="share" data-tags="share" d="M511.097-60.388c-279.929 0-507.485 227.556-507.485 507.485s227.556 509.291 507.485 509.291c279.929 0 507.485-227.556 507.485-507.485s-225.75-509.291-507.485-509.291zM511.097 922.074c-260.063 0-473.171-213.108-473.171-473.171s213.108-473.171 473.171-473.171c260.063 0 473.171 213.108 473.171 473.171s-211.302 473.171-473.171 473.171zM650.159 382.081c-28.896 0-54.18-12.642-70.434-34.314l-151.704 77.658c1.806 7.224 3.612 14.448 3.612 23.478s-1.806 16.254-3.612 25.284l151.704 77.658c16.254-21.672 41.538-36.12 70.434-36.12 48.762 0 90.3 39.732 90.3 88.494s-39.732 88.494-90.3 88.494c-48.762 0-90.3-39.732-90.3-88.494 0-7.224 1.806-16.254 3.612-23.478l-151.704-77.658c-16.254 19.866-41.538 34.314-70.434 34.314-48.762 0-90.3-39.732-90.3-88.494s39.732-88.494 90.3-88.494c28.896 0 54.18 14.448 72.24 36.12l151.704-77.658c-1.806-7.224-3.612-16.254-3.612-25.284 0-48.762 39.732-88.494 90.3-88.494 48.762 0 90.3 39.732 90.3 88.494-1.806 48.762-41.538 88.494-92.106 88.494z" />
<glyph unicode="&#xe907;" glyph-name="heart_filled" data-tags="heart_filled" d="M949.169 731.569c-145.723 192.985-437.169 78.769-437.169-118.154 0 196.923-291.446 307.2-437.169 118.154-153.6-196.923-3.938-547.446 437.169-748.308 441.108 200.862 590.769 551.385 437.169 748.308z" />
<glyph unicode="&#xe908;" glyph-name="heart_outline" data-tags="heart_outline" d="M299.323 794.585c106.338 0 212.677-66.954 212.677-173.292 0 106.338 102.4 173.292 212.677 173.292 63.015 0 126.031-23.631 173.292-82.708 133.908-169.354 0-464.738-382.031-634.092-389.908 169.354-519.877 464.738-385.969 634.092 47.262 59.077 110.277 82.708 169.354 82.708zM299.323 857.6v0c-86.646 0-165.415-39.385-220.554-106.338-59.077-74.831-78.769-173.292-51.2-275.692 43.323-177.231 216.615-346.585 456.862-452.923l27.569-11.815 27.569 11.815c240.246 106.338 413.538 275.692 456.862 452.923 27.569 102.4 7.877 200.862-51.2 275.692-55.138 70.892-133.908 106.338-220.554 106.338-66.954 0-133.908-23.631-185.108-66.954-7.877-7.877-15.754-15.754-23.631-23.631-7.877 7.877-15.754 15.754-23.631 23.631-55.138 43.323-122.092 66.954-192.985 66.954v0z" />
<glyph unicode="&#xe909;" glyph-name="BAR_Icons_Grau_1_Stift" data-tags="BAR_Icons_Grau_1_Stift" d="M755.343 691.333c-36.977 36.977-97.126 37.007-134.083 0.061l-331.213-331.305c-2.959-2.949-5.233-6.595-6.472-10.742l-41.605-139.53c-2.683-9.011-0.215-18.76 6.431-25.405s16.404-9.114 25.405-6.431l139.53 41.595c4.137 1.229 7.782 3.523 10.742 6.472l0.041-0.041 331.284 331.254c36.936 36.946 36.905 97.096-0.061 134.072zM406.006 280.34l-61.655 61.655 295.055 295.055 61.655-61.655-295.055-295.055z" />
<glyph unicode="&#xe90a;" glyph-name="icon-clock" data-tags="icon-clock" d="M512 857.6c-0.021 0-0.046 0-0.072 0-112.342 0-214.076-45.42-287.839-118.899l0.013 0.013-0.666 37.837-73.267-1.229 1.485-85.658 1.229-73.216 158.925 2.611-1.229 73.267-29.645-0.512c59.954 57.271 141.372 92.518 231.022 92.518 0.015 0 0.031 0 0.046 0h-0.003c185.67-0.204 336.129-150.664 336.333-336.314v-0.019c-0.204-185.67-150.664-336.129-336.314-336.333h-0.019c-185.67 0.204-336.129 150.664-336.333 336.314v0.019c0 3.328 0.205 6.656 0.256 9.882h-73.267c-0.102-3.226-0.256-6.554-0.256-9.882 0-225.843 183.757-409.6 409.6-409.6s409.6 183.757 409.6 409.6-183.757 409.6-409.6 409.6zM460.8 704v-307.2h153.6v61.44h-95.334v245.76z" />
<glyph unicode="&#xe90b;" glyph-name="BAR_Icons_Grau_3_Briefumschlag" data-tags="BAR_Icons_Grau_3_Briefumschlag" d="M803.011 238.52h-582.021c-5.652 0-10.24 4.577-10.24 10.24v308.47c0 3.758 2.068 7.219 5.376 9.011 3.308 1.782 7.332 1.618 10.476-0.44l284.723-186.624 286.085 186.634c3.154 2.058 7.158 2.212 10.455 0.43 3.308-1.792 5.366-5.243 5.366-9.001v-308.47c0.020-5.673-4.557-10.25-10.22-10.25zM511.314 446.71c-1.956 0-3.912 0.563-5.612 1.679l-290.324 190.29c-3.789 2.478-5.489 7.158-4.198 11.5 1.29 4.332 5.284 7.311 9.81 7.311h582.021c4.526 0 8.53-2.98 9.81-7.322 1.29-4.342-0.42-9.021-4.219-11.5l-291.697-190.29c-1.7-1.116-3.645-1.669-5.591-1.669z" />
<glyph unicode="&#xe90c;" glyph-name="BAR_Icons_Grau_3_Erinnerung" data-tags="BAR_Icons_Grau_3_Erinnerung" d="M361.748 447.457h57.498v-57.498h-57.498v57.498zM483.226 447.457h57.498v-57.498h-57.498v57.498zM604.703 447.457h57.498v-57.498h-57.498v57.498zM361.748 342.354h57.498v-57.498h-57.498v57.498zM483.226 342.354h57.498v-57.498h-57.498v57.498zM604.703 342.354h57.498v-57.498h-57.498v57.498zM357.929 722.053c-13.65 0-24.76-11.1-24.76-24.76v-66.949c0-13.65 11.1-24.76 24.76-24.76 13.65 0 24.75 11.1 24.75 24.76v66.949c0.010 13.66-11.1 24.76-24.75 24.76zM512 722.053c-13.65 0-24.76-11.1-24.76-24.76v-66.949c0-13.65 11.1-24.76 24.76-24.76s24.75 11.1 24.75 24.76v66.949c0.010 13.66-11.090 24.76-24.75 24.76zM747.090 660.552h-25.539v-30.208c0-30.587-24.893-55.48-55.48-55.48s-55.48 24.893-55.48 55.48v30.208h-43.11v-30.208c0-30.587-24.893-55.48-55.48-55.48s-55.47 24.893-55.47 55.48v30.208h-43.121v-30.208c0-30.587-24.883-55.48-55.47-55.48s-55.48 24.893-55.48 55.48v30.208h-25.549c-14.131 0-25.6-11.459-25.6-25.6v-435.415c0-14.131 11.469-25.6 25.6-25.6h470.19c14.141 0 25.6 11.469 25.6 25.6v435.415c-0.010 14.141-11.469 25.6-25.61 25.6zM721.49 225.137h-418.98v282.030h418.99v-282.030zM666.071 722.053c-13.65 0-24.76-11.1-24.76-24.76v-66.949c0-13.65 11.11-24.76 24.76-24.76s24.76 11.1 24.76 24.76v66.949c0 13.66-11.11 24.76-24.76 24.76z" />
<glyph unicode="&#xe90d;" glyph-name="BAR_Icons_Grau_3_neu_laden" data-tags="BAR_Icons_Grau_3_neu_laden" d="M701.942 637.942c-50.801 50.801-118.262 78.787-189.942 78.787-35.164 0-69.304-6.799-100.977-19.702l-25.078 57.6c-4.127 9.492-13.793 15.759-23.931 15.37-10.353-0.184-19.579-6.595-23.368-16.22l-48.23-122.624c-5.171-13.158 1.29-28.017 14.459-33.198l122.624-48.241c3.041-1.198 6.216-1.772 9.37-1.772 6.82 0 13.507 2.724 18.432 7.823 7.188 7.455 9.175 18.504 5.048 27.996l-28.826 66.212c25.303 10.138 52.48 15.555 80.497 15.555 58.010 0 112.609-22.651 153.743-63.785 41.134-41.144 63.785-95.744 63.785-153.743 0-14.131 11.459-25.6 25.6-25.6s25.6 11.459 25.6 25.6c-0.020 71.67-27.996 139.131-78.807 189.942zM719.145 298.025l-122.634 48.241c-9.646 3.82-20.613 1.403-27.791-6.052-7.188-7.455-9.185-18.504-5.048-27.986l28.815-66.212c-25.303-10.138-52.48-15.565-80.497-15.565-58.010 0-112.599 22.661-153.743 63.785-41.134 41.134-63.785 95.734-63.785 153.743 0 14.141-11.459 25.6-25.6 25.6s-25.6-11.459-25.6-25.6c0-71.69 27.976-139.141 78.787-189.942s118.272-78.776 189.952-78.776c35.164 0 69.304 6.799 100.987 19.712l25.078-57.61c4.065-9.349 13.302-15.38 23.47-15.38 0.154 0 0.307 0 0.461 0 10.353 0.195 19.569 6.595 23.357 16.23l48.241 122.634c5.181 13.148-1.29 28.017-14.449 33.178z" />
<glyph unicode="&#xe90e;" glyph-name="BAR_Icons_Grau_3_Person" data-tags="BAR_Icons_Grau_3_Person" d="M588.667 469.678c59.341 28.652 100.475 89.262 100.475 159.447 0 97.679-79.473 177.152-177.152 177.152s-177.152-79.473-177.152-177.152c0-70.185 41.144-130.796 100.485-159.447-108.104-32.932-187.003-133.55-187.003-252.283 0-14.141 11.459-25.6 25.6-25.6h476.16c14.141 0 25.6 11.459 25.6 25.6 0 118.733-78.899 219.351-187.013 252.283z" />
<glyph unicode="&#xe90f;" glyph-name="whatsapp_icon" data-tags="whatsapp_icon" horiz-adv-x="1019" d="M870.6 811.174c-95.787 95.909-223.203 148.753-358.94 148.826-279.673 0-507.304-227.631-507.402-507.377-0.049-89.437 23.308-176.733 67.71-253.689l-71.968-262.934 268.992 70.557c74.109-40.412 157.537-61.725 242.473-61.749h0.195c0.024 0 0.024 0 0.024 0 279.649 0 507.28 227.631 507.402 507.402 0.049 135.591-52.674 263.056-148.486 358.964zM759.898 271.267c-10.559-29.634-61.214-56.665-85.569-60.29-21.848-3.26-49.487-4.623-79.851 5.012-18.418 5.864-42.042 13.649-72.284 26.714-127.173 54.913-210.235 182.986-216.585 191.453-6.35 8.443-51.774 68.732-51.774 131.139s32.748 93.086 44.378 105.787c11.63 12.676 25.352 15.863 33.819 15.863 8.443 0 16.909-0.097 24.281-0.462 7.786-0.389 18.247 2.968 28.539-21.751 10.559-25.4 35.911-87.807 39.098-94.157 3.163-6.326 5.28-13.746 1.046-22.189-4.233-8.467-6.35-13.771-12.676-21.167-6.35-7.396-13.308-16.52-19.026-22.213-6.35-6.326-12.944-13.187-5.547-25.863 7.396-12.7 32.845-54.207 70.533-87.831 48.417-43.21 89.267-56.592 101.943-62.942s20.072-5.28 27.469 3.187c7.396 8.467 31.702 37.006 40.144 49.706 8.467 12.7 16.909 10.584 28.539 6.35s73.963-34.914 86.639-41.264c12.676-6.326 21.118-9.513 24.281-14.793 3.187-5.304 3.187-30.68-7.396-60.29z" />
<glyph unicode="&#xe910;" glyph-name="illu-ln-2-a" data-tags="illu-ln-2-a" d="M512 738.133c56.553 0 102.4-45.847 102.4-102.4v-91.022h113.778c28.277 0 51.2-22.923 51.2-51.2v0-96.569l-45.511-45.221v141.79c0 2.907-2.181 5.305-4.996 5.646l-0.027 0.003-0.666 0.040h-432.356c-2.907 0-5.305-2.181-5.646-4.996l-0.003-0.027-0.040-0.666v-284.444c0-2.907 2.181-5.305 4.996-5.646l0.027-0.003 0.666-0.040h432.356c2.907 0 5.305 2.181 5.646 4.996l0.003 0.027 0.040 0.666 0.006 91.227c4.129 0.604 7.758 2.403 10.612 5.030l-0.014-0.013 0.984 0.973 33.923 33.929v-131.146c0-28.277-22.923-51.2-51.2-51.2v0h-432.356c-28.277 0-51.2 22.923-51.2 51.2v0 284.444c0 28.277 22.923 51.2 51.2 51.2v0h113.778v91.022c0 56.553 45.847 102.4 102.4 102.4zM512 431.030c31.42 0 56.889-25.469 56.889-56.889 0-25.469-16.737-47.030-39.822-54.283v-36.739c0-9.426-7.641-17.067-17.067-17.067s-17.067 7.641-17.067 17.067v0 36.739c-23.080 7.248-39.822 28.814-39.822 54.283 0 31.42 25.469 56.889 56.889 56.889zM512 396.897c-12.568 0-22.756-10.188-22.756-22.756s10.188-22.756 22.756-22.756v0c12.568 0 22.756 10.188 22.756 22.756s-10.188 22.756-22.756 22.756v0zM512 692.622c-30.891 0-56.024-24.616-56.866-55.296l-0.023-1.593v-79.644h113.778v79.644c0 30.891-24.616 56.024-55.296 56.866l-1.593 0.023z" />
<glyph unicode="&#xe911;" glyph-name="BAR_Icons_Gruen_Telefon" data-tags="BAR_Icons_Gruen_Telefon" d="M648.55 216.381c-0.276 0-0.573 0-0.85 0-41.073 0.686-147.354 12.984-246.508 112.138-98.458 98.458-116.613 209.531-119.849 252.713-1.106 14.787 4.311 29.327 14.879 39.885l51.005 51.005c9.994 10.004 26.214 10.004 36.198 0l108.134-108.134c10.004-9.994 10.004-26.204 0-36.198l-40.878-40.878 100.403-100.321 40.888 40.817c10.015 9.984 26.204 9.964 36.188-0.020l108.134-108.134c10.004-9.994 10.004-26.204 0-36.198l-51.671-51.681c-9.585-9.564-22.682-14.991-36.076-14.991z" />
<glyph unicode="&#xe912;" glyph-name="BAR_Icons_Petrol_Dunkel_Arzt" data-tags="BAR_Icons_Petrol_Dunkel_Arzt" d="M512 960c282.767 0 512-229.233 512-512s-229.233-512-512-512-512 229.233-512 512 229.233 512 512 512zM780.646 447.867c0 28.221-22.958 51.19-51.19 51.19s-51.19-22.958-51.19-51.19c0-18.862 10.373-35.195 25.59-44.073v-58.030c0-70.564-57.405-127.98-127.98-127.98-70.564 0-127.98 57.416-127.98 127.98 0 0.328-0.020 32.604-0.031 52.91 86.702 12.421 153.631 86.968 153.631 177.060 0 0.614-0.072 128.072-0.072 128.072 0 14.141-11.459 25.6-25.6 25.6h-69.55c-14.141 0-25.6-11.459-25.6-25.6s11.459-25.6 25.6-25.6h43.95c0 0 0.020-103.496 0.061-104.069-0.86-69.775-57.887-126.29-127.867-126.29-70.144 0-127.273 56.76-127.877 126.761 0.020 0.41 0.031 103.588 0.031 103.588h43.95c14.141 0 25.6 11.459 25.6 25.6s-11.459 25.6-25.6 25.6h-69.55c-14.141 0-25.6-11.459-25.6-25.6 0 0-0.031-127.621-0.031-128.072 0-89.979 66.775-164.454 153.324-177.009 0-20.736 0.020-54.149 0.041-54.508 0.829-98.089 80.886-177.633 179.169-177.633 98.796 0 179.18 80.394 179.18 179.18v58.030c15.227 8.899 25.59 25.231 25.59 44.083z" />
<glyph unicode="&#xe913;" glyph-name="BAR_Icons_Petrol_Dunkel_Auge" data-tags="BAR_Icons_Petrol_Dunkel_Auge" d="M512 960c282.767 0 512-229.233 512-512s-229.233-512-512-512-512 229.233-512 512 229.233 512 512 512zM577.085 536.494c-28.273 0-51.2-22.927-51.2-51.2 0-28.283 22.927-51.2 51.2-51.2 28.283 0 51.2 22.927 51.2 51.2s-22.917 51.2-51.2 51.2zM865.669 464.333c-5.069 8.079-126.812 197.837-353.618 197.888-0.020 0-0.051 0-0.082 0s-0.061 0-0.082 0c-226.703-0.041-348.539-189.798-353.608-197.878-6.277-9.994-6.277-22.692 0-32.686 5.079-8.079 126.904-197.827 353.608-197.878 0.020 0 0.051 0 0.082 0s0.061 0 0.082 0c226.806 0.051 348.549 189.809 353.618 197.888 6.267 9.984 6.267 22.682 0 32.666zM511.969 270.469c-97.976 0-177.428 79.555-177.428 177.531s79.452 177.521 177.428 177.521 177.521-79.544 177.521-177.521c0-97.976-79.555-177.531-177.521-177.531z" />
<glyph unicode="&#xe914;" glyph-name="BAR_Icons_Petrol_Dunkel_Brust" data-tags="BAR_Icons_Petrol_Dunkel_Brust" d="M512 960c-282.767 0-512-229.233-512-512s229.233-512 512-512 512 229.233 512 512-229.233 512-512 512zM563.384 447.99c28.273 0 51.2-22.927 51.2-51.2s-22.927-51.2-51.2-51.2c-28.283 0-51.2 22.927-51.2 51.2-0.010 28.273 22.917 51.2 51.2 51.2zM731.197 230.605c-58.839-58.849-136.97-91.3-219.924-91.3-83.415 0-161.659 32.471-220.303 91.423-58.829 58.522-91.29 136.755-91.29 220.17 0 16.968 13.752 30.72 30.72 30.72s30.72-13.752 30.72-30.72c0-66.949 26.030-129.72 73.298-176.742 47.145-47.38 109.906-73.421 176.855-73.421 66.55 0 129.249 26.051 176.538 73.359 47.329 47.084 73.359 109.855 73.359 176.804 0 66.632-25.969 129.444-73.155 176.855-11.96 12.022-11.909 31.478 0.123 43.448 12.022 11.96 31.468 11.909 43.438-0.113 58.706-59.003 91.034-137.206 91.034-220.191 0-83.425-32.461-161.659-91.412-220.293z" />
<glyph unicode="&#xe915;" glyph-name="BAR_Icons_Petrol_Dunkel_Darm" data-tags="BAR_Icons_Petrol_Dunkel_Darm" d="M512 960c282.767 0 512-229.233 512-512s-229.233-512-512-512-512 229.233-512 512 229.233 512 512 512zM551.066 125.44v33.413c0.010 0.369 0.020 0.737 0.020 1.106 0 9.206 7.485 16.701 16.701 16.701h106.967c54.385 0 98.621 44.247 98.621 98.632s-44.237 98.621-98.621 98.621h-324.649c-9.206 0-16.701 7.485-16.701 16.701s7.496 16.701 16.701 16.701h325.12c54.385 0 98.621 44.237 98.621 98.621s-44.237 98.621-98.621 98.621h-325.12c-9.206 0-16.701 7.496-16.701 16.701s7.496 16.701 16.701 16.701h102.298c53.453 0 97.106 42.742 98.591 95.836 0.051 0.819 0.072 1.649 0.072 2.478v34.284c0 22.62-18.34 40.96-40.96 40.96s-40.96-18.34-40.96-40.96v-32.276c-0.020-0.563-0.031-1.137-0.031-1.71 0-9.206-7.496-16.701-16.701-16.701h-102.298c-54.385 0-98.621-44.237-98.621-98.621s44.247-98.621 98.621-98.621h325.12c9.206 0 16.701-7.496 16.701-16.701s-7.485-16.701-16.701-16.701h-325.13c-54.385 0-98.621-44.247-98.621-98.621 0-54.385 44.247-98.621 98.621-98.621h324.649c9.206 0 16.701-7.485 16.701-16.701s-7.485-16.712-16.701-16.712h-106.967c-54.026 0-98.048-43.663-98.621-97.536-0.010-0.44-0.020-0.87-0.020-1.311v-34.284c0-22.62 18.34-40.96 40.96-40.96s40.96 18.34 40.96 40.96z" />
<glyph unicode="&#xe916;" glyph-name="illu-ln-2-b" data-tags="illu-ln-2-b" d="M730.658 348.524l116.776 116.036c3.643 3.885 8.807 6.305 14.537 6.305 10.997 0 19.911-8.915 19.911-19.911 0-5.373-2.128-10.25-5.588-13.832l-130.838-130.838c-3.635-3.82-8.757-6.196-14.434-6.196-5.498 0-10.476 2.228-14.079 5.831l-39.822 39.822c-3.603 3.603-5.832 8.581-5.832 14.080 0 10.997 8.915 19.912 19.912 19.912 5.499 0 10.477-2.229 14.080-5.832l25.372-25.378z" />
<glyph unicode="&#xe917;" glyph-name="BAR_Icons_Petrol_Dunkel_Haken" data-tags="BAR_Icons_Petrol_Dunkel_Haken" d="M512 960c282.767 0 512-229.233 512-512s-229.233-512-512-512-512 229.233-512 512 229.233 512 512 512zM768.471 643.604c-19.978 19.988-52.419 19.988-72.397 0l-278.712-278.702-137.001 137.011c-19.988 19.978-52.398 19.988-72.407 0-19.999-19.999-19.999-52.419 0-72.397l173.21-173.21c10.004-10.004 23.101-15.002 36.209-15.002s26.204 4.997 36.209 15.002l314.89 314.88c19.999 19.999 19.999 52.419 0 72.417z" />
<glyph unicode="&#xe918;" glyph-name="BAR_Icons_Petrol_Dunkel_Jugendliche" data-tags="BAR_Icons_Petrol_Dunkel_Jugendliche" d="M512 960c282.767 0 512-229.233 512-512s-229.233-512-512-512-512 229.233-512 512 229.233 512 512 512zM512 622.93c41.728 0 75.551 33.833 75.551 75.551 0 41.728-33.823 75.551-75.551 75.551s-75.551-33.823-75.551-75.551c0-41.718 33.823-75.551 75.551-75.551zM699.402 374.61l-45.476 117.78c-21.146 57.784-76.636 99.123-141.916 99.123s-120.76-41.339-141.916-99.123l-45.486-117.78c-0.85-2.775-1.331-5.806-1.331-8.95 0-16.681 13.537-30.218 30.218-30.218 12.452 0 23.091 7.485 27.689 18.135l35.666 104.663h4.721v-300.186c0-0.123-0.031-0.236-0.031-0.358 0-19.487 15.8-35.287 35.287-35.287 19.497 0 35.297 15.8 35.297 35.287h0.031v177.828h39.68v-177.828h0.041c0-19.487 15.8-35.287 35.287-35.287s35.287 15.8 35.287 35.287c0 0.123-0.031 0.236-0.041 0.358v300.186h4.721l35.676-104.673c4.598-10.639 15.227-18.135 27.689-18.135 16.681 0 30.218 13.537 30.218 30.218 0.020 3.154-0.471 6.185-1.311 8.96z" />
<glyph unicode="&#xe919;" glyph-name="BAR_Icons_Petrol_Dunkel_Kind" data-tags="BAR_Icons_Petrol_Dunkel_Kind" d="M512 960c282.767 0 512-229.233 512-512s-229.233-512-512-512-512 229.233-512 512 229.233 512 512 512zM512 730.061c-42.414 0-76.8-34.386-76.8-76.8 0-42.424 34.386-76.8 76.8-76.8 42.424 0 76.8 34.376 76.8 76.8 0 42.414-34.376 76.8-76.8 76.8zM691.016 344.627l-37.1 95.109c-21.146 57.784-76.636 99.133-141.916 97.894-65.28 1.239-120.76-40.11-141.916-97.894l-37.1-95.109c-0.85-2.775-1.331-5.796-1.331-8.95 0-16.681 13.537-30.218 30.218-30.218 12.452 0 23.091 7.496 27.689 18.135l26.399 79.606h5.376v-222.556c0-0.051-0.010-0.113-0.010-0.164 0-19.425 15.749-35.185 35.185-35.185s35.195 15.749 35.195 35.185h0.010v101.304h40.602v-101.304h0.010c0-19.425 15.759-35.185 35.195-35.185s35.185 15.749 35.185 35.185c0 0.051-0.010 0.113-0.010 0.164v222.556h5.366l26.399-79.606c4.598-10.629 15.237-18.135 27.689-18.135 16.681 0 30.218 13.537 30.218 30.218-0.020 3.154-0.502 6.175-1.352 8.95z" />
<glyph unicode="&#xe91a;" glyph-name="BAR_Icons_Petrol_Dunkel_Krebszelle" data-tags="BAR_Icons_Petrol_Dunkel_Krebszelle" d="M512 960c-282.767 0-512-229.233-512-512s229.233-512 512-512 512 229.233 512 512-229.233 512-512 512zM821.074 401.531c-5.693-9.851-16.015-15.37-26.644-15.37-5.212 0-10.486 1.331-15.329 4.116l-41.144 23.736-82.248-47.493v-94.812l41.196-23.788c14.694-8.479 19.732-27.269 11.244-41.964-5.693-9.861-16.005-15.37-26.634-15.37-5.212 0-10.486 1.331-15.329 4.127l-41.052 23.695-82.412-47.575v-47.503c0-16.968-13.763-30.72-30.73-30.72s-30.72 13.752-30.72 30.72v47.503l-82.258 47.483-41.144-23.736c-4.844-2.785-10.117-4.116-15.329-4.116-10.619 0-20.941 5.509-26.634 15.37-8.479 14.705-3.441 33.485 11.244 41.974l41.134 23.736v94.976l-82.258 47.493-41.134-23.736c-4.844-2.785-10.117-4.116-15.329-4.116-10.619 0-20.941 5.509-26.634 15.37-8.479 14.705-3.441 33.485 11.244 41.964l41.175 23.777v94.925l-41.175 23.777c-14.694 8.489-19.722 27.269-11.244 41.964 8.489 14.684 27.269 19.722 41.964 11.244l41.288-23.839 81.531 47.084v47.718c0 16.968 13.752 30.72 30.72 30.72s30.72-13.752 30.72-30.72v-47.022l82.831-47.821 82.852 47.831v47.012c0 16.968 13.752 30.72 30.72 30.72s30.72-13.752 30.72-30.72v-47.677l81.572-47.094 41.247 23.808c14.725 8.468 33.485 3.43 41.964-11.244 8.489-14.694 3.451-33.485-11.244-41.964l-41.134-23.747v-94.986l41.134-23.747c14.705-8.489 19.743-27.269 11.264-41.964zM429.732 366.5v-94.956l82.268-47.503 82.268 47.503v94.986l-82.237 47.483zM542.73 562.094v-94.863l82.258-47.493 82.258 47.493v94.853l-82.258 47.493z" />
<glyph unicode="&#xe91b;" glyph-name="BAR_Icons_Petrol_Dunkel_Kreuz" data-tags="BAR_Icons_Petrol_Dunkel_Kreuz" d="M512 960c282.767 0 512-229.233 512-512s-229.233-512-512-512-512 229.233-512 512 229.233 512 512 512zM584.407 448l151.767 151.767c19.999 19.999 19.999 52.419 0 72.407-19.978 19.988-52.419 19.988-72.397 0l-151.777-151.767-151.767 151.777c-19.999 19.988-52.408 19.988-72.407 0-19.999-19.999-19.999-52.419 0-72.407l151.767-151.777-151.777-151.767c-19.999-19.988-19.999-52.408 0-72.397 10.004-10.004 23.101-15.002 36.209-15.002s26.204 4.997 36.209 15.002l151.767 151.767 151.777-151.767c9.994-10.004 23.101-15.002 36.198-15.002s26.214 4.997 36.198 15.002c19.999 19.988 19.999 52.408 0 72.397l-151.767 151.767z" />
<glyph unicode="&#xe91c;" glyph-name="BAR_Icons_Petrol_Dunkel_Lupe" data-tags="BAR_Icons_Petrol_Dunkel_Lupe" d="M512 960c-282.767 0-512-229.233-512-512s229.233-512 512-512 512 229.233 512 512-229.233 512-512 512zM343.122 152.914c-28.242 0-51.128 22.876-51.128 51.118s22.886 51.128 51.128 51.128c28.232 0 51.118-22.886 51.118-51.128s-22.886-51.118-51.118-51.118zM758.088 187.361c-5.99-6.011-13.865-9.001-21.719-9.001s-15.718 2.99-21.719 9.001l-162.038 162.038c-39.772-28.375-86.436-42.824-133.222-42.824-58.849 0-117.699 22.446-162.591 67.348-89.805 89.805-89.805 235.397 0 325.202 44.902 44.902 103.752 67.348 162.591 67.348 58.849 0 117.699-22.446 162.601-67.348 84.234-84.234 89.436-217.559 15.647-307.876l160.451-160.451c12.012-12.001 12.012-31.447 0-43.438zM419.389 705.044c-45.015 0-87.327-17.531-119.153-49.357-65.7-65.7-65.7-172.605 0-238.305 31.826-31.826 74.138-49.357 119.153-49.357s87.327 17.531 119.153 49.357c65.7 65.7 65.7 172.605 0 238.305-31.826 31.826-74.148 49.357-119.153 49.357zM387.461 441.129c-42.394 0-76.759 34.365-76.759 76.759s34.365 76.759 76.759 76.759c42.383 0 76.759-34.365 76.759-76.759-0.010-42.383-34.376-76.759-76.759-76.759z" />
<glyph unicode="&#xe91d;" glyph-name="linkedin" data-tags="linkedin" d="M416 534.4h134.4v-67.2h3.2c19.2 32 64 67.2 131.2 67.2 140.8 0 166.4-86.4 166.4-201.6v-230.4h-137.6v204.8c0 48 0 112-73.6 112s-83.2-54.4-83.2-108.8v-208h-140.8v432zM176 534.4h144v-432h-144v432zM320 656c0-38.4-32-73.6-73.6-73.6s-73.6 32-73.6 73.6 32 73.6 73.6 73.6 73.6-35.2 73.6-73.6z" />
<glyph unicode="&#xe91e;" glyph-name="xing" data-tags="xing" d="M243.2 681.6c-6.4 0-9.6-3.2-12.8-9.6-3.2-3.2-3.2-9.6 0-16l73.6-131.2c0 0 0 0 0 0l-115.2-204.8c-3.2-6.4-3.2-12.8 0-16s6.4-6.4 12.8-6.4h112c16 0 25.6 12.8 28.8 22.4 0 0 115.2 204.8 118.4 211.2 0 0-76.8 131.2-76.8 131.2-6.4 9.6-12.8 19.2-32 19.2h-108.8zM710.4 832c-16 0-22.4-9.6-28.8-22.4 0 0-240-422.4-246.4-438.4 0 0 156.8-288 156.8-288 6.4-9.6 12.8-22.4 32-22.4h112c6.4 0 12.8 3.2 16 6.4s3.2 9.6 0 16l-156.8 284.8c0 0 0 0 0 0l246.4 435.2c3.2 6.4 3.2 12.8 0 16-6.4 9.6-12.8 12.8-19.2 12.8h-112z" />
<glyph unicode="&#xe91f;" glyph-name="Arzneimittel" data-tags="Arzneimittel" d="M512.821 960c283.221 0 512.821-229.6 512.821-512.821 0-283.231-229.6-512.821-512.821-512.821s-512.821 229.59-512.821 512.821c0 283.221 229.6 512.821 512.821 512.821zM640 640h-256c-46.256 0-83.915-36.803-85.294-82.724l-0.039-2.609v-341.333c0-34.561 27.394-62.723 61.654-63.958l2.346-0.042h298.667c34.561 0 62.723 27.394 63.958 61.654l0.042 2.346v341.333c0 46.256-36.803 83.915-82.724 85.294l-2.609 0.039zM541.806 490.667c6.083 0 11.091-4.603 11.732-10.516l0.069-1.286v-52.199h52.199l1.914-0.154c5.207-0.849 9.269-5.106 9.823-10.406l0.064-1.241v-40.397l-0.154-1.914c-0.849-5.207-5.106-9.269-10.406-9.823l-1.241-0.064h-52.22l0.021-52.199-0.154-1.914c-0.849-5.207-5.106-9.269-10.406-9.823l-1.241-0.064h-40.397l-1.914 0.154c-5.207 0.849-9.269 5.106-9.823 10.406l-0.064 1.241-0.021 52.199h-52.177l-1.914 0.154c-5.207 0.849-9.269 5.106-9.823 10.406l-0.064 1.241v40.397l0.154 1.914c0.849 5.207 5.106 9.269 10.406 9.823l1.241 0.064 52.199 0.021v52.177l0.154 1.914c0.849 5.207 5.106 9.269 10.406 9.823l1.241 0.064h40.397zM661.333 746.667h-298.667c-11.27 0-20.499-8.739-21.28-19.81l-0.054-1.524v-21.333c0-11.27 8.739-20.499 19.81-21.28l1.524-0.054h298.667c11.27 0 20.499 8.739 21.28 19.81l0.054 1.524v21.333c0 11.27-8.739 20.499-19.81 21.28l-1.524 0.054z" />
<glyph unicode="&#xe920;" glyph-name="icon-fax" data-tags="icon-fax" d="M181.838 709.275h-130.017c-0.187 0.002-0.408 0.004-0.629 0.004-27.951 0-50.671-22.398-51.191-50.224l-0.001-0.049v-672.737c0.346-27.841 22.996-50.278 50.886-50.278 0.329 0 0.657 0.003 0.984 0.009l-0.049-0.001h130.017c0.278-0.005 0.606-0.009 0.935-0.009 27.89 0 50.54 22.437 50.886 50.245v672.77c-0.346 27.841-22.996 50.278-50.886 50.278-0.329 0-0.657-0.003-0.984-0.009l0.049 0.001zM972.179 684.141v-100.538h-623.709v100.538h-51.821v-723.006h675.53c0.278-0.005 0.606-0.009 0.935-0.009 27.89 0 50.54 22.437 50.886 50.245v622.501c-0.346 27.841-22.996 50.278-50.886 50.278-0.329 0-0.657-0.003-0.984-0.009l0.049 0.001zM920.048 384.698h-519.447v155.152h519.447zM912.912 649.697v256.621c0.009 0.371 0.015 0.807 0.015 1.245 0 28.749-23.135 52.096-51.803 52.437h-401.564c-28.869-0.346-52.139-23.829-52.139-52.748 0-0.329 0.003-0.656 0.009-0.984l-0.001 0.049v-256.621z" />
<glyph unicode="&#xe921;" glyph-name="icn_face_id" data-tags="icn_face_id" d="M1024 103.119v114.85c0 14.34-11.641 25.966-26 25.966s-26-11.626-26-25.966v-114.85c0-62.777-51.141-113.851-114-113.851h-115c-14.359 0-26-11.626-26-25.966s11.641-25.966 26-25.966h115c91.532 0 166 74.371 166 165.783zM307-36.698c0 14.34-11.641 25.966-26 25.966h-115c-62.859 0-114 51.074-114 113.851v114.85c0 14.34-11.641 25.966-26 25.966s-26-11.626-26-25.966v-114.85c0-91.413 74.468-165.783 166-165.783h115c14.359 0 26 11.626 26 25.966zM52 679.367v114.85c0 62.778 51.141 113.851 114 113.851h115c14.359 0 26 11.626 26 25.966s-11.641 25.966-26 25.966h-115c-91.532 0-166-74.37-166-165.783v-114.85c0-14.34 11.641-25.966 26-25.966s26 11.626 26 25.966zM1024 679.367v114.85c0 91.414-74.468 165.783-166 165.783h-115c-14.359 0-26-11.626-26-25.966s11.641-25.966 26-25.966h115c62.859 0 114-51.073 114-113.851v-114.85c0-14.34 11.641-25.966 26-25.966s26 11.626 26 25.966zM691.429 204.151c10.954 10.105 11.631 27.165 1.513 38.104-10.119 10.94-27.2 11.616-38.154 1.512-38.977-35.957-89.687-55.759-142.788-55.759s-103.811 19.802-142.788 55.759c-10.956 10.104-28.035 9.427-38.154-1.512s-9.441-27.999 1.513-38.104c48.985-45.187 112.706-70.072 179.429-70.072s130.444 24.885 179.429 70.072zM566 382.754v191.75c0 14.893-12.088 26.965-27 26.965s-27-12.072-27-26.965v-191.75c0-8.26-6.729-14.98-15-14.98h-22c-14.912 0-27-12.072-27-26.965s12.088-26.965 27-26.965h22c38.047 0 69 30.913 69 68.91zM752 499.102v76.9c0 14.065-11.417 25.467-25.5 25.467s-25.5-11.402-25.5-25.467v-76.9c0-14.065 11.417-25.467 25.5-25.467s25.5 11.402 25.5 25.467zM303.5 473.635c-14.083 0-25.5 11.402-25.5 25.467v76.9c0 14.065 11.417 25.467 25.5 25.467s25.5-11.402 25.5-25.467v-76.9c0-14.065-11.417-25.467-25.5-25.467z" />
<glyph unicode="&#xe922;" glyph-name="icn_touch_id" data-tags="icn_touch_id" d="M512.949 710.881c-146.227 0-264.738-118.955-264.738-265.66 0.137-3.721 0.41-8.841 0.922-15.462 0.819-10.991 1.946-21.982 3.413-32.358 1.434-10.172 3.174-19.046 5.222-26.658 4.915-29.901 7.509-60.279 7.509-90.999 0-17.169-0.785-34.236-2.321-51.166-0.853-9.079 5.871-17.101 14.95-17.954 9.079-0.819 17.101 5.871 17.92 14.95 1.673 17.92 2.458 35.977 2.458 54.17 0 33.314-2.765 66.287-8.226 98.679-0.068 0.512-0.41 0.922-0.512 1.365-1.604 6.11-3.072 13.517-4.301 22.255-1.331 9.557-2.389 19.866-3.174 30.174-0.444 6.212-0.717 11.025-0.853 13.687 0.034 127.795 103.765 231.936 231.731 231.936 70.861 0 136.397-32.085 180.156-86.323 5.734-7.1 16.111-8.192 23.211-2.458s8.226 16.111 2.492 23.211c-49.937 61.918-124.928 98.611-205.858 98.611zM691.876 476.112v0.034c-14.404 87.723-90.317 152.951-179.883 152.951-21.094 0-41.745-3.584-61.235-10.581-8.602-3.072-13.073-12.527-10.001-21.129 3.072-8.567 12.527-13.039 21.129-9.967 15.94 5.7 32.802 8.636 50.108 8.636 73.318 0 135.475-53.419 147.285-125.303 0.068-0.239 0.171-0.375 0.239-0.614 0.034-0.239-0.068-0.444 0-0.683 12.493-61.338 18.807-124.143 18.807-187.802 0-106.496-17.715-210.534-52.053-308.941-3.004-8.602 1.536-18.022 10.138-21.026 8.636-3.038 18.022 1.536 21.060 10.138 35.533 101.922 53.897 209.613 53.897 319.829 0 65.843-6.554 130.867-19.456 194.389 0 0.034-0.034 0.034-0.034 0.068zM746.66 532.944c-8.875-2.219-14.234-11.196-12.015-20.036 19.149-76.868 28.945-156.262 28.945-236.988 0-89.054-11.913-176.572-35.226-260.745-2.423-8.806 2.731-17.92 11.537-20.343 8.772-2.423 17.852 2.731 20.309 11.537 24.098 87.074 36.42 177.493 36.42 269.551 0 83.422-10.138 165.513-29.935 244.975-2.219 8.841-11.162 14.234-20.036 12.049zM941.015 362.004c9.045 0.853 15.701 8.943 14.882 17.988-4.915 52.224-13.073 103.834-24.371 154.624v0.034c-41.199 197.769-215.654 341.709-419.533 341.709-56.081 0-110.694-10.82-161.553-31.607-8.465-3.447-12.493-13.107-9.045-21.538 3.447-8.465 13.073-12.493 21.538-9.045 46.899 19.149 97.28 29.15 149.060 29.15 188.143 0 349.184-132.847 387.209-315.392 0.034-0.068 0.068-0.137 0.102-0.205 0-0.102-0.034-0.171 0-0.273 10.991-49.425 18.91-99.703 23.689-150.562 0.887-9.045 8.909-15.735 18.022-14.882zM601.149 952.272c-8.977 1.604-17.545-4.403-19.115-13.38-1.604-8.977 4.403-17.545 13.414-19.149 227.328-40.073 395.503-239.206 395.503-473.566 0-9.114 7.407-16.521 16.521-16.521s16.521 7.407 16.521 16.521c0 250.436-179.746 463.223-422.844 506.095zM849.060 521.475c-20.617 93.355-79.155 173.909-160.666 222.618-7.817 4.676-17.954 2.116-22.63-5.7-4.71-7.851-2.116-17.988 5.7-22.665 73.83-44.134 126.874-117.146 145.442-201.762 0.034-0.102 0.137-0.205 0.171-0.341 18.534-81.715 27.989-165.717 27.989-250.982 0-61.133-4.881-121.685-14.473-181.18-1.434-9.011 4.676-17.51 13.722-18.944 8.977-1.468 17.442 4.676 18.91 13.687 9.865 61.235 14.882 123.529 14.882 186.436 0 87.757-9.728 174.251-28.843 258.355-0.034 0.171-0.171 0.307-0.205 0.478zM946.033 302.203c-9.114-0.683-15.94-8.567-15.258-17.681 0.546-7.919 0.853-15.872 0.853-23.791 0-17.306-1.365-34.577-4.164-51.814-1.434-8.977 4.71-17.476 13.687-18.91 9.011-1.468 17.476 4.642 18.944 13.653 3.038 18.978 4.574 37.99 4.574 57.071 0 8.738-0.341 17.51-0.956 26.249-0.683 9.079-8.567 15.872-17.681 15.223zM607.089 464.678c-0.034 0.58 0.137 1.161 0 1.741-9.011 44.578-48.23 77.107-94.14 77.107-53.077 0-96.085-43.179-96.085-96.427 0-8.192 1.024-20.89 3.789-35.43 0.034-0.341-0.102-0.683-0.034-0.99 6.281-39.287 9.489-79.189 9.489-119.501 0-109.568-23.586-215.757-68.506-312.9-3.823-8.329-0.205-18.125 8.055-21.948 8.294-3.823 18.125-0.239 21.914 8.055 46.933 101.513 71.578 212.412 71.578 326.793 0 41.711-3.311 83.012-9.796 123.665-0.068 0.41 0.068 0.853 0 1.263-1.536 7.612-2.492 15.189-3.038 22.289-0.341 4.198-0.444 7.236-0.444 8.704 0 35.021 28.262 63.386 63.078 63.386 29.696 0 55.057-20.787 61.44-49.459 0.068-0.41-0.068-0.819 0.034-1.229 13.619-60.484 20.548-122.675 20.548-185.754 0-9.114 7.407-16.521 16.486-16.521 9.148 0 16.555 7.407 16.555 16.521 0 64.717-7.1 128.512-20.924 190.635zM33.034 446.177c0 45.329 6.246 89.839 18.432 132.574 2.492 8.806-2.594 17.92-11.366 20.446-8.738 2.492-17.886-2.594-20.412-11.366-13.005-45.67-19.695-93.218-19.695-141.653 0-58.607 9.796-115.917 28.706-170.086 3.004-8.602 12.425-13.175 21.060-10.172 8.602 3.038 13.141 12.459 10.138 21.094-17.715 50.654-26.863 104.277-26.863 159.164zM125.536 361.049c-34.099 164.625 37.581 323.686 157.969 409.361 7.441 5.291 9.148 15.599 3.891 23.040-5.291 7.441-15.599 9.182-23.040 3.891-129.399-92.092-206.473-261.734-171.998-438.101 0.034-0.887-0.205-1.707-0.034-2.594 5.359-28.297 8.090-57.173 8.090-86.426 0-34.27-3.721-68.028-11.059-100.864-1.98-8.875 3.618-17.715 12.527-19.729 8.875-1.946 17.715 3.652 19.695 12.527 7.885 35.226 11.878 71.373 11.878 108.066 0 29.491-2.799 58.607-7.919 87.177 0.034 1.229 0.273 2.423 0 3.652zM207.148 373.268c0 0.137 0.034 0.205 0 0.307-6.212 39.97-7.987 61.918-7.475 70.69 0 0.239 0 0.239-0.034-0.273l0.137 2.185c0 173.124 139.776 313.446 312.218 313.446 27.921 0 55.296-3.652 81.715-10.82 8.806-2.389 17.852 2.799 20.241 11.605s-2.833 17.886-11.605 20.275c-29.218 7.919-59.529 11.981-90.351 11.981-190.157 0-344.303-154.283-345.19-344.883-0.034-0.375-0.068-0.717-0.137-1.638-0.649-11.503 1.297-35.567 7.817-77.585 0.034-0.034 0-0.068 0-0.137 6.178-30.174 9.318-61.133 9.318-92.501 0-60.314-11.605-119.023-33.86-173.67-3.447-8.465 0.58-18.091 9.045-21.504 8.431-3.447 18.091 0.58 21.538 9.045 23.859 58.573 36.318 121.515 36.318 186.129 0 32.973-3.345 65.536-9.694 97.348zM505.644 926.979c9.114 0.102 16.418 7.612 16.282 16.725-0.102 9.114-7.578 16.418-16.725 16.282-193.843-2.526-367.241-114.176-452.028-285.525-4.062-8.192-0.717-18.091 7.475-22.153 8.158-4.028 18.091-0.683 22.118 7.475 79.36 160.393 241.562 264.806 422.878 267.196zM373.821 371.016c0.307 2.492 0.205 4.983-0.683 7.441-2.253 6.349-4.233 14.814-5.905 24.781-1.57 9.455-2.765 19.729-3.618 30.037-0.512 6.144-0.785 10.923-0.887 13.551 0 35.43 12.732 69.495 35.533 96.427 5.905 6.963 5.052 17.374-1.946 23.279-6.929 5.905-17.374 5.018-23.245-1.911-27.853-32.836-43.383-74.479-43.383-118.443 0.137-3.755 0.444-8.977 0.99-15.633 0.922-11.127 2.219-22.289 3.959-32.734 1.638-9.762 3.652-18.193 6.007-25.668 0.034-0.478-0.137-0.956-0.034-1.399 5.325-31.095 8.021-62.771 8.021-94.822 0-93.184-22.835-186.539-64.512-268.254-4.13-8.124-0.887-18.057 7.202-22.221 8.158-4.164 18.091-0.922 22.221 7.202 44.032 86.357 68.13 184.832 68.13 283.273 0 32.154-2.765 63.863-7.851 95.095zM529.504 448.294c-1.673 8.977-10.308 14.882-19.285 13.175-8.977-1.673-14.882-10.308-13.175-19.285 9.66-51.302 14.541-103.697 14.541-156.706 0-63.59-7.031-126.191-20.821-187.051-2.014-8.909 3.55-17.749 12.459-19.763 8.909-2.048 17.749 3.584 19.729 12.459 14.37 63.283 21.675 128.341 21.675 194.355 0 55.057-5.086 109.534-15.121 162.816zM608.079 195.024c-9.079 1.024-17.237-5.53-18.261-14.609-8.465-76.629-27.307-151.074-55.876-221.73-3.413-8.465 0.683-18.057 9.148-21.504 8.431-3.379 18.091 0.683 21.47 9.148 29.696 73.421 49.323 150.835 58.095 230.468 1.024 9.079-5.53 17.237-14.575 18.227zM488.544 26.44c-8.67 2.935-18.022-1.707-20.958-10.377-1.911-5.666-4.71-13.449-8.226-22.699-0.478-1.297-0.478-1.297-0.99-2.628-2.697-7.1-5.598-14.575-8.499-21.948-1.741-4.437-3.072-7.817-3.857-9.762-3.379-8.465 0.751-18.057 9.216-21.436s18.091 0.751 21.47 9.216c0.785 1.946 2.15 5.427 3.925 9.933 2.935 7.441 5.871 15.053 8.636 22.255l0.99 2.662c3.652 9.626 6.588 17.749 8.636 23.859 2.935 8.636-1.707 18.022-10.342 20.924zM267.599 151.436c-8.841 2.253-17.852-3.038-20.139-11.844-8.192-31.607-19.149-62.293-32.734-91.785-3.823-8.294-0.171-18.125 8.090-21.914 8.329-3.789 18.125-0.205 21.914 8.090 14.404 31.266 26.010 63.829 34.714 97.28 2.287 8.841-3.004 17.852-11.844 20.173z" />
<glyph unicode="&#xe923;" glyph-name="chevron-final-regular" data-tags="chevron-final-regular" d="M680.448 260.608l-244.395 244.565c-11.605 11.776-29.525 14.336-43.861 6.485-15.701-8.533-21.333-28.16-12.8-43.691 1.365-2.56 3.413-5.12 5.461-7.168l196.437-196.267c2.048-2.048 2.048-5.461 0-7.339v0l-194.731-194.731c-12.971-12.971-13.824-34.133-1.365-47.445 12.629-13.653 34.133-14.336 47.787-1.707 0.341 0.341 0.512 0.512 0.853 0.853l246.613 246.443z" />
<glyph unicode="&#xe924;" glyph-name="chevron-final-bold" data-tags="chevron-final-bold" d="M430.592 4.267c-30.208 0-54.443 24.576-54.443 54.613 0 14.677 5.973 28.672 16.384 38.912l162.816 162.816-164.352 164.352c-11.776 11.605-17.408 28.16-15.019 44.544 2.219 16.555 12.117 31.061 26.795 39.253 8.363 4.779 17.92 7.339 27.648 7.339 15.36 0 30.037-6.144 40.96-17.067l238.592-238.592-240.811-240.299c-10.069-10.24-24.064-15.872-38.571-15.872v0z" />
<glyph unicode="&#xe925;" glyph-name="BAR_Icons_Petrol_Dunkel_Zahn" data-tags="BAR_Icons_Petrol_Dunkel_Zahn" d="M512 960c282.767 0 512-229.233 512-512s-229.233-512-512-512-512 229.233-512 512 229.233 512 512 512zM593.172 756.173c-29.481 0-57.252-8.632-81.172-24.023-23.921 15.391-51.692 24.023-81.172 24.023-89.938 0-162.775-79.288-162.775-177.459 0-56.904 39.516-99.574 39.516-149.484 0-54.559 17.091-283.791 83.948-283.791 66.867 0 41.871 244.675 120.484 244.675s53.617-244.675 120.484-244.675 83.948 229.233 83.948 283.791c0 49.91 39.516 92.59 39.516 149.484 0 98.171-72.847 177.459-162.775 177.459z" />
<glyph unicode="&#xe926;" glyph-name="BAR_Icons_Petrol_Dunkel_Alarm" data-tags="BAR_Icons_Petrol_Dunkel_Alarm" d="M512 960c-282.77 0-512-229.23-512-512s229.23-512 512-512c282.77 0 512 229.23 512 512v0c0 282.77-229.23 512-512 512v0zM512 177.766h-0.614c-0.061 0-0.133 0-0.206 0-31.166 0-56.452 25.178-56.626 56.304v0.017c0.195 5.042 1.117 9.803 2.664 14.272l-0.104-0.346h108.544c1.435-4.122 2.356-8.882 2.557-13.828l0.003-0.098c-0.116-31.022-25.204-56.146-56.201-56.32h-0.017zM741.069 286.413h-458.24v37.786c0.217 5.105 2.587 9.615 6.22 12.676l0.026 0.022s48.845 52.941 48.845 191.795c0 108.646 73.318 153.6 133.12 167.936v31.642c-0.029 0.581-0.045 1.261-0.045 1.946 0 23.043 18.68 41.722 41.722 41.722 22.358 0 40.609-17.587 41.673-39.681l0.004-0.095c0.049-0.583 0.077-1.261 0.077-1.946s-0.028-1.363-0.083-2.034l0.006 0.088v-31.539c59.392-13.926 132.608-59.392 132.608-167.936 0-138.854 49.254-191.898 49.254-191.898 3.11-2.905 5.048-7.031 5.048-11.609 0-0.347-0.011-0.691-0.033-1.033l0.002 0.047z" />
<glyph unicode="&#xe927;" glyph-name="icons-100-full-auslandsreisen" data-tags="icons-100-full-auslandsreisen" d="M512 960c282.767 0 512-229.233 512-512 0-282.778-229.233-512-512-512s-512 229.222-512 512c0 282.767 229.233 512 512 512zM384 587.52h-80c-26.51 0-48-21.49-48-48v-256c0-26.51 21.49-48 48-48h416c26.51 0 48 21.49 48 48v256c0 26.51-21.49 48-48 48h-80v48c0 26.51-21.49 48-48 48h-160c-26.51 0-48-21.49-48-48v-48zM536 435.52h64c13.255 0 24-10.745 24-24s-10.745-24-24-24h-64v-64c0-13.255-10.745-24-24-24s-24 10.745-24 24v64h-64c-13.255 0-24 10.745-24 24s10.745 24 24 24h64v64c0 13.255 10.745 24 24 24s24-10.745 24-24v-64zM448 635.52h128c8.837 0 16-7.163 16-16v-32h-160v32c0 8.837 7.163 16 16 16z" />
<glyph unicode="&#xe928;" glyph-name="BAR_Icons_Petrol_Dunkel_Kalender" data-tags="BAR_Icons_Petrol_Dunkel_Kalender" d="M318.157 268.698h387.686v261.222h-387.686zM597.811 474.419h53.146v-53.248h-53.146zM597.811 377.139h53.146v-53.248h-53.146zM485.171 474.419h53.146v-53.248h-52.941zM485.171 377.139h53.146v-53.248h-52.941zM372.531 474.419h53.248v-53.248h-53.248zM372.531 377.139h53.248v-53.248h-53.248zM512 960c-282.77 0-512-229.23-512-512s229.23-512 512-512c282.77 0 512 229.23 512 512v0c0 282.77-229.23 512-512 512v0zM631.706 705.536c-0.033 0.458-0.051 0.993-0.051 1.532 0 12.668 10.27 22.938 22.938 22.938s22.938-10.27 22.938-22.938c0-0.539-0.019-1.074-0.055-1.603l0.004 0.072v-61.44c0.033-0.458 0.051-0.993 0.051-1.532 0-12.668-10.27-22.938-22.938-22.938s-22.938 10.27-22.938 22.938c0 0.539 0.019 1.074 0.055 1.603l-0.004-0.072zM489.062 705.536c0 12.668 10.27 22.938 22.938 22.938s22.938-10.27 22.938-22.938v0-61.44c0-12.668-10.27-22.938-22.938-22.938s-22.938 10.27-22.938 22.938v0zM346.522 705.536c0 12.668 10.27 22.938 22.938 22.938s22.938-10.27 22.938-22.938v0-61.44c0-12.668-10.27-22.938-22.938-22.938s-22.938 10.27-22.938 22.938v0zM753.254 244.736c-0.058-13.076-10.672-23.654-23.757-23.654 0 0 0 0 0 0h-434.995c0 0 0 0 0 0-13.085 0-23.698 10.578-23.757 23.649v403.155c0 0 0 0 0 0 0 13.064 10.59 23.654 23.654 23.654 0.036 0 0.072 0 0.108 0h23.648v-27.955c0-28.277 22.923-51.2 51.2-51.2s51.2 22.923 51.2 51.2v0 27.955h40.243v-27.955c0-28.277 22.923-51.2 51.2-51.2s51.2 22.923 51.2 51.2v0 27.955h39.936v-27.955c0-28.277 22.923-51.2 51.2-51.2s51.2 22.923 51.2 51.2v0 27.955h23.654c0.030 0 0.066 0 0.102 0 13.064 0 23.654-10.59 23.654-23.654 0 0 0 0 0 0v0z" />
<glyph unicode="&#xe929;" glyph-name="list-view" data-tags="list-view" d="M987.429 952.686h-650.971c-21.943 0-36.571-14.629-36.571-36.571v-73.143c0-21.943 14.629-36.571 36.571-36.571h650.971c21.943 0 36.571 14.629 36.571 36.571v73.143c0 14.629-14.629 36.571-36.571 36.571zM987.429 660.114h-650.971c-21.943 0-36.571-14.629-36.571-36.571v-73.143c0-21.943 14.629-36.571 36.571-36.571h650.971c21.943 0 36.571 14.629 36.571 36.571v73.143c0 21.943-14.629 36.571-36.571 36.571zM987.429 374.857h-650.971c-21.943 0-36.571-14.629-36.571-36.571v-73.143c0-21.943 14.629-36.571 36.571-36.571h650.971c21.943 0 36.571 14.629 36.571 36.571v73.143c0 14.629-14.629 36.571-36.571 36.571zM987.429 82.286h-650.971c-21.943 0-36.571-14.629-36.571-36.571v-73.143c0-21.943 14.629-36.571 36.571-36.571h650.971c21.943 0 36.571 14.629 36.571 36.571v73.143c0 14.629-14.629 36.571-36.571 36.571zM117.029 952.686h-73.143c-21.943 0-36.571-14.629-36.571-36.571v-73.143c0-21.943 14.629-36.571 36.571-36.571h73.143c21.943 0 36.571 14.629 36.571 36.571v73.143c0 14.629-14.629 36.571-36.571 36.571zM117.029 660.114h-73.143c-21.943 0-36.571-14.629-36.571-36.571v-73.143c0-21.943 14.629-36.571 36.571-36.571h73.143c21.943 0 36.571 14.629 36.571 36.571v73.143c0 21.943-14.629 36.571-36.571 36.571zM117.029 374.857h-73.143c-21.943 0-36.571-14.629-36.571-36.571v-73.143c0-21.943 14.629-36.571 36.571-36.571h73.143c21.943 0 36.571 14.629 36.571 36.571v73.143c0 14.629-14.629 36.571-36.571 36.571zM117.029 82.286h-73.143c-21.943 0-36.571-14.629-36.571-36.571v-73.143c0-21.943 14.629-36.571 36.571-36.571h73.143c21.943 0 36.571 14.629 36.571 36.571v73.143c0 14.629-14.629 36.571-36.571 36.571z" />
<glyph unicode="&#xe92a;" glyph-name="module-view" data-tags="module-view" d="M0 960h438.857v-438.857h-438.857v438.857zM0 374.857h438.857v-438.857h-438.857v438.857zM585.143 960h438.857v-438.857h-438.857v438.857zM585.143 374.857h438.857v-438.857h-438.857v438.857z" />
<glyph unicode="&#xe92b;" glyph-name="article-document" data-tags="article-document" horiz-adv-x="768" d="M768 758.4c0 3.2 0 6.4-3.2 9.6 0 0 0 3.2 0 3.2 0 3.2-3.2 6.4-6.4 9.6 0 0 0 0 0 0s0 0 0 0l-176 172.8c-3.2 3.2-6.4 3.2-9.6 6.4 0 0-3.2 0-3.2 0-3.2 0-6.4 0-9.6 3.2 0 0 0 0-3.2 0h-524.8c-19.2-3.2-32-16-32-35.2v-960c0-19.2 12.8-32 32-32h704c19.2 0 32 12.8 32 32v790.4c0-3.2 0-3.2 0 0zM64 0v896h464v-140.8c0-19.2 12.8-32 32-32h144v-723.2h-640zM608 441.6h-448c-19.2 0-32-12.8-32-32s16-32 32-32h448c19.2 0 32 12.8 32 32s-16 32-32 32zM608 576h-448c-19.2 0-32-12.8-32-32s16-32 32-32h448c19.2 0 32 12.8 32 32s-16 32-32 32zM608 307.2h-448c-19.2 0-32-12.8-32-32s16-32 32-32h448c19.2 0 32 12.8 32 32s-16 32-32 32zM608 172.8h-448c-19.2 0-32-12.8-32-32s16-32 32-32h448c19.2 0 32 12.8 32 32s-16 32-32 32z" />
<glyph unicode="&#xe92c;" glyph-name="article-download" data-tags="article-download" horiz-adv-x="960" d="M928 195.2c-19.2 0-32-12.8-32-32v-163.2h-832v163.2c0 19.2-12.8 32-32 32s-32-12.8-32-32v-195.2c0-19.2 12.8-32 32-32h896c19.2 0 32 12.8 32 32v195.2c0 19.2-12.8 32-32 32zM457.6 140.8c0 0 0 0 0 0v0c3.2 0 3.2-3.2 3.2-3.2 3.2 0 3.2-3.2 6.4-3.2s6.4-3.2 12.8-3.2 9.6 0 12.8 3.2c3.2 0 3.2 3.2 6.4 3.2 0 0 3.2 0 3.2 3.2l256 249.6c12.8 12.8 12.8 32 0 44.8s-32 12.8-44.8 0l-201.6-195.2v688c0 19.2-12.8 32-32 32s-32-12.8-32-32v-688l-201.6 195.2c-12.8 12.8-32 12.8-44.8 0s-12.8-32 0-44.8l256-249.6z" />
<glyph unicode="&#xe92d;" glyph-name="service-app" data-tags="service-app" horiz-adv-x="695" d="M109.227 960c-70.542 0-109.227-38.684-109.227-109.227v-804.409c0-71.68 38.684-110.364 109.227-110.364h475.591c70.542 0 109.227 38.684 109.227 109.227v805.547c0 70.542-38.684 109.227-109.227 109.227h-475.591zM256 887.182h183.182v-36.409h-183.182v36.409zM347.022-27.591c-30.72 0-54.613 25.031-54.613 54.613 0 30.72 25.031 54.613 54.613 54.613s54.613-25.031 54.613-54.613c1.138-29.582-23.893-54.613-54.613-54.613zM584.818 155.591c0-18.204-18.204-36.409-36.409-36.409h-401.636c-18.204 0-36.409 18.204-36.409 36.409v584.818c0 18.204 18.204 36.409 36.409 36.409h402.773c18.204 0 36.409-18.204 36.409-36.409l-1.138-584.818z" />
<glyph unicode="&#xe92e;" glyph-name="patient-receipt" data-tags="patient-receipt" horiz-adv-x="804" d="M546.133 633.458h160.427l-217.316 218.453v-160.427c0-31.858 25.031-58.027 56.889-58.027zM542.72 598.187c-53.476 0-88.747 35.271-88.747 88.747v178.631h-307.2c-34.133 0-62.578-28.444-62.578-62.578v-731.591c0-34.133 28.444-62.578 62.578-62.578h510.862c34.133 0 62.578 28.444 62.578 62.578v526.791h-177.493zM643.982 226.133l-75.093-85.333c0 0-1.138-1.138-1.138-1.138-11.378-11.378-28.444-11.378-39.822 0l-28.444 28.444c-1.138 1.138-2.276 1.138-2.276 2.276-10.24 11.378-9.102 29.582 2.276 39.822s29.582 9.102 39.822-2.276l6.827-6.827 55.751 62.578c4.551 5.689 11.378 9.102 19.342 10.24s15.929-2.276 21.618-6.827c11.378-12.516 12.516-29.582 1.138-40.96zM392.533 140.8h-211.627v18.204h211.627v-18.204zM392.533 220.444h-211.627v18.204h211.627v-18.204zM392.533 300.089h-211.627v18.204h211.627v-18.204zM620.089 379.733h-439.182v18.204h439.182v-18.204zM620.089 459.378h-439.182v18.204h439.182v-18.204z" />
<glyph unicode="&#xe92f;" glyph-name="cross-icon" data-tags="cross-icon" d="M753.664 545.28h-144.384v144.384c0 13.312-11.264 24.576-24.576 24.576h-145.408c-13.312 0-24.576-11.264-24.576-24.576v-144.384h-144.384c-13.312 0-24.576-11.264-24.576-24.576v-146.432c0-13.312 11.264-24.576 24.576-24.576h144.384v-144.384c0-13.312 11.264-24.576 24.576-24.576h146.432c13.312 0 24.576 11.264 24.576 24.576v145.408h144.384c13.312 0 24.576 11.264 24.576 24.576v145.408c-1.024 13.312-12.288 24.576-25.6 24.576z" />
<glyph unicode="&#xe930;" glyph-name="Icon__semibold" data-tags="Icon_@_semibold" horiz-adv-x="983" d="M600.998 301.877c-4.4 25.268-7.695 87.896-7.695 148.329v142.825c0 0-54.941 16.481-87.896 16.481-98.893 0-118.662-56.033-118.662-174.696 0-128.545 37.348-170.3 88.994-170.3 43.945 0 106.567 28.568 125.259 37.361zM983.342 486.455c0-252.705-74.71-327.417-203.257-327.417-112.073 0-138.444 63.728-138.444 63.728s-96.683-62.623-175.793-62.623c-116.452 0-199.968 57.126-199.968 275.771 0 181.292 51.646 277.975 215.358 277.975 46.141 0 112.065-27.47 112.065-27.47v15.382h118.662v-202.158c0-220.849 5.484-240.62 68.12-240.62 52.738 0 83.497 31.858 83.497 227.432v12.082c0 249.412-106.574 357.083-359.274 357.083-254.896 0-385.646-137.346-385.646-406.527 0-291.152 109.869-408.716 385.646-408.716 52.738 0 157.108 9.891 157.108 9.891l5.499-104.377c0 0-101.077-9.891-162.607-9.891-325.221 0-504.308 116.465-504.308 513.094 0 354.887 195.562 510.904 504.308 510.904 327.41 0 479.034-158.213 479.034-462.56v-10.983z" />
<glyph unicode="&#xe931;" glyph-name="Icon__bold" data-tags="Icon_@_bold" horiz-adv-x="989" d="M581.843 320.258c-5.449 32.749-6.554 74.23-6.554 115.71v134.274c0 0-45.844 10.926-66.584 10.926-78.601 0-92.788-42.578-92.788-143.010 0-97.16 20.74-145.187 67.676-145.187 32.756 0 73.146 15.277 98.25 27.287zM989.025 488.368c0-228.147-74.231-324.215-210.681-324.215-113.534 0-145.2 61.137-145.2 61.137s-87.324-61.137-161.555-61.137c-133.183 0-204.132 74.231-204.132 274.006 0 176.845 51.295 271.814 208.491 271.814 40.401 0 99.341-27.287 99.341-27.287v14.186h146.285v-195.403c0-198.677 5.462-215.051 54.581-215.051 43.669 0 66.584 39.297 66.584 201.95v9.821c0 233.622-103.699 332.964-335.126 332.964-236.883 0-361.336-143.010-361.336-382.083 0-264.17 97.153-384.258 361.336-384.258 54.581 0 156.105 9.834 156.105 9.834l5.464-127.733c0 0-98.256-10.913-161.568-10.913-323.124 0-507.614 118.99-507.614 513.069 0 347.144 206.322 510.887 507.614 510.887 322.038 0 481.412-163.744 481.412-462.853v-8.736z" />
<glyph unicode="&#xe932;" glyph-name="icon-info" data-tags="icon-info" d="M512 913.231c-256.923 0-465.231-208.308-465.231-465.231s208.308-465.231 465.231-465.231c256.923 0 465.231 208.308 465.231 465.231s-208.308 465.231-465.231 465.231zM608.923 192.154c-24-9.385-43.077-16.615-57.385-21.538s-30.769-7.385-49.692-7.385c-28.923 0-51.538 7.077-67.692 21.231-16 14-24 32-24 53.846 0 8.462 0.615 17.077 1.846 25.846 1.077 8.923 3.077 18.769 5.692 30l30 105.846c2.615 10.154 4.923 19.692 6.769 28.769s2.615 17.385 2.615 24.923c0 13.385-2.769 22.923-8.308 28.154-5.692 5.385-16.308 8-32 8-7.692 0-15.692-1.231-23.846-3.538-8.154-2.462-15.077-4.769-20.923-6.923l8 32.615c19.538 8 38.308 14.769 56.308 20.462 17.846 5.692 34.923 8.615 50.769 8.615 28.769 0 51.077-7.077 66.615-20.923s23.385-32 23.385-54.154c0-4.615-0.462-12.769-1.538-24.308s-3.077-22.154-6-32l-29.846-105.538c-2.462-8.462-4.615-18.154-6.615-28.923-1.846-10.769-2.769-19.077-2.769-24.615 0-14 3.077-23.692 9.385-28.769 6.154-5.077 17.077-7.538 32.615-7.538 7.231 0 15.385 1.231 24.615 3.692 9.077 2.615 15.692 4.769 19.846 6.769zM603.538 620.615c-13.846-12.923-30.615-19.385-50.154-19.385s-36.462 6.462-50.462 19.385c-14 12.923-20.923 28.615-20.923 46.923s7.077 34.154 20.923 47.231c14 13.077 30.923 19.538 50.462 19.538s36.308-6.462 50.154-19.538c14-13.077 20.923-28.923 20.923-47.231s-6.923-34-20.923-46.923z" />
<glyph unicode="&#xe933;" glyph-name="icon-info-i" data-tags="icon-info-i" d="M512 857.6c-226.202 0-409.6-183.398-409.6-409.6s183.398-409.6 409.6-409.6 409.6 183.398 409.6 409.6c0 226.202-183.398 409.6-409.6 409.6zM546.133 243.2h-68.267v238.933h68.267v-238.933zM512 567.467c-28.262 0-51.2 22.938-51.2 51.2s22.938 51.2 51.2 51.2 51.2-22.938 51.2-51.2-22.938-51.2-51.2-51.2z" />
<glyph unicode="&#xe934;" glyph-name="filter" data-tags="filter" d="M443.733-16.213c-2.276 0-4.551 0-6.827 2.276-9.102 2.276-15.929 11.378-15.929 20.48v557.511l-377.742 309.476c-9.102 4.551-11.378 15.929-6.827 25.031 2.276 9.102 11.378 15.929 20.48 15.929h910.222c9.102 0 18.204-6.827 20.48-15.929s0-18.204-6.827-25.031l-377.742-309.476v-386.844c0-4.551-2.276-9.102-4.551-13.653l-136.533-170.667c-4.551-6.827-11.378-9.102-18.204-9.102zM580.267 177.209v0 0z" />
<glyph unicode="&#xe935;" glyph-name="arrow-bold" data-tags="arrow-bold" d="M237.739 567.979c0 16.213 6.827 31.744 18.603 42.837 23.211 21.504 59.051 20.651 81.749-2.048l174.421-174.421 176.128 176.128c12.629 12.629 30.037 18.432 47.787 16.043s33.109-12.8 42.155-28.672c5.12-9.045 7.851-19.115 7.851-29.525 0-16.213-6.656-32.256-18.261-43.861l-255.659-255.488-257.707 257.707c-11.093 10.923-17.067 25.6-17.067 41.301 0 0 0 0 0 0z" />
<glyph unicode="&#xe936;" glyph-name="profile" data-tags="profile" horiz-adv-x="819" d="M12.488 152.788c3.497 139.364 149.854 98.404 291.715 186.818v84.917c-165.838 124.878-85.417 427.083 106.896 427.083 187.817 0 269.737-302.704 101.9-427.083 0-31.469 0-53.448 0-84.917 153.35-91.411 283.223-42.459 288.219-178.326-95.407-151.352-695.321-156.347-788.73-8.492z" />
<glyph unicode="&#xe937;" glyph-name="search-header" data-tags="search-header" d="M703.488 185.344c-70.656-54.272-154.88-82.944-243.968-82.944-220.928-0.256-400.64 179.456-400.64 400.384s179.712 400.64 400.64 400.64c220.928 0 400.64-179.712 400.64-400.64 0-90.368-30.976-178.688-87.040-249.344l207.36-207.36-68.864-68.864-208.128 208.128zM459.52 806.144c-80.896 0-157.184-31.488-214.528-88.832s-88.832-133.376-88.832-214.528c0-167.168 136.192-303.104 303.36-303.104 80.896 0 157.184 31.488 214.528 88.832s88.832 133.376 88.832 214.528c-0.256 166.912-136.192 303.104-303.36 303.104z" />
<glyph unicode="&#xe938;" glyph-name="arrow-header" data-tags="arrow-header" d="M528 41.6v0c24 24 24 60.8 0 84.8l-323.2 321.6 323.2 323.2c24 24 24 60.8 0 84.8s-60.8 24-84.8 0l-323.2-323.2-83.2-84.8 1.6-1.6c0 0 0 0 0 0l406.4-406.4c20.8-22.4 59.2-22.4 83.2 1.6zM134.4 448v0c0 27.2 20.8 48 48 48h758.4c27.2 0 48-20.8 48-48v0c0-27.2-20.8-48-48-48h-758.4c-27.2 0-48 20.8-48 48z" />
<glyph unicode="&#xe939;" glyph-name="whatsapp" data-tags="whatsapp" d="M795.2 732.8c-75.2 75.2-176 116.8-281.6 116.8-219.2 0-398.4-177.6-398.4-398.4 0-70.4 17.6-139.2 52.8-198.4l-56-206.4 211.2 56c57.6-32 123.2-48 190.4-48v0c219.2-1.6 398.4 177.6 398.4 396.8 0 105.6-41.6 208-116.8 281.6zM513.6 120v0c-59.2 0-118.4 16-168 46.4l-12.8 6.4-124.8-32 33.6 121.6-8 12.8c-33.6 52.8-51.2 113.6-51.2 176 0 182.4 148.8 331.2 331.2 331.2s331.2-148.8 331.2-331.2c0-182.4-148.8-331.2-331.2-331.2zM696 368c-9.6 4.8-59.2 28.8-68.8 32s-16 4.8-22.4-4.8c-6.4-9.6-25.6-32-32-38.4s-11.2-8-20.8-3.2c-9.6 4.8-41.6 16-80 49.6-28.8 25.6-49.6 59.2-56 68.8s0 16 4.8 20.8c4.8 4.8 9.6 11.2 14.4 17.6s6.4 9.6 9.6 16 1.6 12.8-1.6 17.6c-3.2 4.8-22.4 54.4-30.4 73.6s-16 16-22.4 17.6c-6.4 0-12.8 0-19.2 0-9.6 0-19.2-4.8-27.2-12.8-9.6-9.6-35.2-33.6-35.2-83.2s35.2-96 40-102.4 70.4-107.2 169.6-150.4c19.2-8 36.8-14.4 56-20.8 24-8 44.8-6.4 62.4-3.2 19.2 3.2 59.2 24 67.2 48s8 43.2 6.4 48c1.6 1.6-4.8 4.8-14.4 9.6z" />
<glyph unicode="&#xe93a;" glyph-name="ZB_Kind12" data-tags="ZB_Kind12" d="M517.458 779.718c-47.074 0-85.238-38.164-85.238-85.238 0-47.086 38.164-85.238 85.238-85.238 47.086 0 85.238 38.153 85.238 85.238 0 47.074-38.153 85.238-85.238 85.238zM716.142 351.937l-41.176 105.559c-23.469 64.133-85.056 110.025-157.509 108.65-72.452 1.375-134.028-44.517-157.509-108.65l-41.176-105.559c-0.943-3.080-1.477-6.433-1.477-9.933 0-18.514 15.025-33.538 33.538-33.538 13.82 0 25.628 8.319 30.731 20.128l29.299 88.352h5.967v-247.009c0-0.057-0.011-0.125-0.011-0.182 0-21.56 17.479-39.050 39.050-39.050s39.062 17.479 39.062 39.050h0.011v112.435h45.063v-112.435h0.011c0-21.56 17.491-39.050 39.062-39.050s39.050 17.479 39.050 39.050c0 0.057-0.011 0.125-0.011 0.182v247.009h5.955l29.299-88.352c5.103-11.797 16.911-20.128 30.731-20.128 18.514 0 33.538 15.025 33.538 33.538-0.023 3.5-0.557 6.853-1.5 9.933z" />
<glyph unicode="&#xe93b;" glyph-name="Zahnbonus" data-tags="Zahnbonus" d="M600.060 816.64c118.689 0 213.434-103.244 213.434-229.417 0-32.1-6.857-55.759-24.232-98-6.219-15.12-7.376-17.983-9.702-24.238-6.245-16.791-9.078-29.093-9.078-40.458 0-44.969-7.050-122.644-19.083-183.734-19.961-101.343-49.559-161.433-108.562-161.433-34.762 0-56.771 23.276-71.257 60.226-8.545 21.796-13.72 43.694-22.776 90.279-1.165 5.999-1.78 9.164-2.326 11.964-8.504 43.579-14.122 66.27-21.789 84.296-3.832 9.010-7.631 15.084-10.878 18.2-1.342 1.288-1.468 1.342-2.105 1.342-0.639 0-0.766-0.055-2.109-1.344-3.247-3.116-7.046-9.189-10.878-18.199-7.667-18.026-13.285-40.718-21.788-84.295-0.547-2.802-1.162-5.969-2.327-11.972-9.055-46.582-14.229-68.479-22.773-90.274-14.485-36.949-36.493-60.223-71.255-60.223-59.003 0-88.601 60.090-108.562 161.433-12.032 61.090-19.083 138.766-19.083 183.734 0 11.365-2.833 23.667-9.078 40.458-2.327 6.255-3.483 9.118-9.702 24.238-17.375 42.241-24.232 65.9-24.232 98 0 126.17 94.752 229.417 213.434 229.417 30.973 0 60.997-7.169 88.356-20.766 27.363 13.596 57.386 20.766 88.35 20.766zM697.963 424.527c0 21.432 4.635 41.563 13.627 65.739 2.74 7.368 4.001 10.489 10.605 26.543 13.949 33.913 18.78 50.581 18.78 70.414 0 87.447-63.734 156.898-140.915 156.898-24.506 0-48.005-7.041-68.73-20.38-11.954-7.693-27.3-7.691-39.252 0.004-20.712 13.335-44.208 20.376-68.724 20.376-77.174 0-140.915-69.455-140.915-156.898 0-19.833 4.831-36.501 18.78-70.414 6.603-16.054 7.865-19.176 10.605-26.543 8.992-24.176 13.627-44.307 13.627-65.739 0-103.083 29.856-258.968 52.245-271.801 1.937 2.789 4.237 7.251 6.619 13.326 6.33 16.145 10.948 35.688 19.103 77.642 1.161 5.98 1.783 9.185 2.337 12.023 9.496 48.665 15.881 74.457 26.231 98.792 16.719 39.308 42.111 63.678 79.721 63.678 37.608 0 62.998-24.37 79.717-63.679 10.35-24.334 16.734-50.123 26.231-98.79 0.554-2.836 1.176-6.039 2.336-12.015 8.157-41.958 12.775-61.501 19.106-77.648 2.383-6.077 4.683-10.54 6.621-13.33 22.389 12.831 52.246 168.717 52.246 271.801z" />
<glyph unicode="&#xe93c;" glyph-name="Vorsorgeplaner" data-tags="Vorsorgeplaner" d="M204.8 548.538h614.4v100.538c0 18.509-13.754 33.513-30.72 33.513h-75.404v-33.513c0-18.509-15.004-33.513-33.513-33.513s-33.513 15.004-33.513 33.513v33.513h-268.102v-33.513c0-18.509-15.004-33.513-33.513-33.513s-33.513 15.004-33.513 33.513v33.513h-75.404c-16.966 0-30.72-15.004-30.72-33.513v-100.538zM204.8 481.513v-301.615c0-18.509 13.754-33.513 30.72-33.513h552.96c16.966 0 30.72 15.004 30.72 33.513v301.615h-614.4zM713.076 749.615h75.404c50.899 0 92.16-45.012 92.16-100.538v-469.178c0-55.526-41.261-100.538-92.16-100.538h-552.96c-50.899 0-92.16 45.012-92.16 100.538v469.178c0 55.526 41.261 100.538 92.16 100.538h75.404v33.513c0 18.509 15.004 33.513 33.513 33.513s33.513-15.004 33.513-33.513v-33.513h268.102v33.513c0 18.509 15.004 33.513 33.513 33.513s33.513-15.004 33.513-33.513v-33.513z" />
<glyph unicode="&#xe93d;" glyph-name="Impfplaner" data-tags="Impfplaner" d="M325.953 213.173l-102.658-102.658c-12.34-12.34-32.346-12.34-44.686 0l-1.064 1.064c-12.34 12.34-12.34 32.346 0 44.686l102.658 102.658-35.488 93.56c-9.030 23.805-3.259 50.693 14.745 68.696l264.284 264.284c25.267 25.267 66.233 25.267 91.5 0l45.75-45.75 71.166 71.166-69.157 69.157c-12.34 12.34-12.34 32.346 0 44.686l1.064 1.064c12.34 12.34 32.346 12.34 44.686 0l184.063-184.063c12.34-12.34 12.34-32.346 0-44.686l-1.064-1.064c-12.34-12.34-32.346-12.34-44.686 0l-69.157 69.157-71.166-71.166 45.75-45.75c25.267-25.267 25.267-66.233 0-91.5l-264.284-264.284c-18.003-18.003-44.891-23.774-68.696-14.745l-93.56 35.488zM363.618 433.838l-58.409-58.409 37.744-99.506 99.506-37.744 264.284 264.284-137.25 137.25-68.625-68.625 46.282-46.282c12.34-12.34 12.34-32.346 0-44.686l-1.064-1.064c-12.34-12.34-32.346-12.34-44.686 0l-46.282 46.282-45.75-45.75 46.282-46.282c12.34-12.34 12.34-32.346 0-44.686l-1.064-1.064c-12.34-12.34-32.346-12.34-44.686 0l-46.282 46.282z" />
<glyph unicode="&#xe93e;" glyph-name="Icon_Impfplaner" data-tags="Icon_Impfplaner" d="M512 960c282.767 0 512-229.233 512-512 0-282.778-229.233-512-512-512s-512 229.222-512 512c0 282.767 229.233 512 512 512zM367.328 271.985l71.076-26.96c18.085-6.86 38.511-2.475 52.188 11.201l200.774 200.774c19.195 19.195 19.195 50.316 0 69.511l-34.862 34.862c0.704 0.564 1.384 1.172 2.037 1.825l52.134 52.134 52.134-52.134c9.598-9.598 25.158-9.598 34.756 0s9.598 25.158 0 34.756l-139.023 139.023c-9.598 9.598-25.158 9.598-34.756 0s-9.598-25.158 0-34.756l52.134-52.134-52.134-52.134c-0.653-0.653-1.261-1.333-1.825-2.037l-34.862 34.862c-19.195 19.195-50.316 19.195-69.511 0l-52.208-52.208c0.584-0.485 1.151-1.002 1.699-1.549l52.134-52.134c9.598-9.598 9.598-25.158 0-34.756s-25.158-9.598-34.756 0l-52.134 52.134c-0.548 0.548-1.064 1.115-1.549 1.699l-34.905-34.905c0.584-0.485 1.151-1.002 1.699-1.549l52.134-52.134c9.598-9.598 9.598-25.158 0-34.756s-25.158-9.598-34.756 0l-52.134 52.134c-0.548 0.548-1.064 1.115-1.549 1.699l-44.448-44.448c-13.677-13.677-18.061-34.103-11.201-52.188l26.96-71.076-77.584-77.584c-9.598-9.598-9.598-25.158 0-34.756s25.158-9.598 34.756 0l77.584 77.584z" />
<glyph unicode="&#xe93f;" glyph-name="login-layer-tooltip" data-tags="login-layer-tooltip" d="M446.171 272.457h102.4v-117.029h-102.4v117.029zM504.686 733.257c-65.829 0-146.286-29.257-146.286-29.257v-65.829c0 0 80.457 14.629 131.657 14.629 73.143 0 95.086-21.943 95.086-65.829 0-36.571-7.314-51.2-73.143-102.4-51.2-36.571-73.143-58.514-73.143-95.086s21.943-65.829 21.943-65.829h73.143v29.257c0 29.257 14.629 51.2 73.143 95.086 65.829 43.886 73.143 73.143 73.143 153.6 0 95.086-51.2 131.657-175.543 131.657zM512 960c-285.257 0-512-226.743-512-512s226.743-512 512-512 512 226.743 512 512-226.743 512-512 512zM512 9.143c-241.371 0-438.857 197.486-438.857 438.857s197.486 438.857 438.857 438.857 438.857-197.486 438.857-438.857-197.486-438.857-438.857-438.857z" />
<glyph unicode="&#xe940;" glyph-name="VP1a" data-tags="VP1a" d="M283.496 496.062h388.741v79.162c0 11.711-8.702 21.204-19.437 21.204h-47.709v-18.377c0-11.711-9.493-21.204-21.204-21.204s-21.204 9.493-21.204 21.204v18.377h-169.632v-18.377c0-11.711-9.493-21.204-21.204-21.204s-21.204 9.493-21.204 21.204v18.377h-47.709c-10.735 0-19.437-9.493-19.437-21.204v-79.162zM283.496 453.654v-175.287c0-11.711 8.702-21.204 19.437-21.204h349.867c10.735 0 19.437 9.493 19.437 21.204v175.287h-388.741zM605.091 638.836h47.709c32.204 0 58.311-28.48 58.311-63.612v-296.857c0-35.132-26.107-63.612-58.311-63.612h-349.867c-32.204 0-58.311 28.48-58.311 63.612v296.857c0 35.132 26.107 63.612 58.311 63.612h47.709v21.204c0 11.711 9.493 21.204 21.204 21.204s21.204-9.493 21.204-21.204v-21.204h169.632v21.204c0 11.711 9.493 21.204 21.204 21.204s21.204-9.493 21.204-21.204v-21.204z" />
<glyph unicode="&#xe941;" glyph-name="VP2a" data-tags="VP2a" d="M284.646 618.668c-0.067-0.001-0.134-0.001-0.201-0.001h-14.222v-102.4c0-51.841 42.026-93.867 93.867-93.867s93.867 42.026 93.867 93.867v102.4h-14.222c-0.067 0-0.134 0-0.201 0.001-1.38-9.65-9.678-17.068-19.71-17.068-10.997 0-19.911 8.915-19.911 19.911v39.822c0 10.997 8.915 19.911 19.911 19.911s19.911-8.915 19.911-19.911v-2.844h34.133c7.166 0 13.301-4.417 15.83-10.677 2.56-3.35 4.081-7.537 4.081-12.079v-119.467c0-67.068-49.387-122.601-113.778-132.216v-66.895c0-36.132 29.291-65.422 65.422-65.422s65.422 29.291 65.422 65.422v34.133c0 54.75 41.806 99.735 95.237 104.775 1.39 0.307 2.836 0.47 4.318 0.47 0.951 0 1.899-0.013 2.844-0.038 0.945 0.025 1.893 0.038 2.844 0.038 1.483 0 2.928-0.162 4.318-0.47 53.431-5.040 95.237-50.025 95.237-104.775v-28.444c0-10.997-8.915-19.911-19.911-19.911s-19.911 8.915-19.911 19.911v28.444c0 35.179-27.766 63.872-62.578 65.361-34.812-1.489-62.578-30.183-62.578-65.361v-34.133c0-58.125-47.12-105.244-105.244-105.244s-105.244 47.12-105.244 105.244v66.895c-64.391 9.615-113.778 65.148-113.778 132.216v119.467c0 4.542 1.521 8.729 4.081 12.079 2.529 6.26 8.664 10.677 15.83 10.677h34.133v2.844c0 10.997 8.915 19.911 19.911 19.911s19.911-8.915 19.911-19.911v-39.822c0-10.997-8.915-19.911-19.911-19.911-10.031 0-18.33 7.418-19.71 17.068z" />
<glyph unicode="&#xe942;" glyph-name="IP2a" data-tags="IP2a" d="M731.689 496.67c7.159 7.81 19.27 8.664 27.466 1.787 8.424-7.068 9.523-19.628 2.454-28.051l-29.254-34.864c-0.173-0.206-0.348-0.407-0.527-0.604-3.65-4.196-9.029-6.848-15.028-6.848-3.845 0-7.435 1.090-10.478 2.977-0.963 0.563-1.892 1.214-2.775 1.955l-34.864 29.254c-8.424 7.068-9.523 19.628-2.454 28.051 6.263 7.464 16.838 9.177 25.026 4.553-21.017 85.759-98.395 149.388-190.633 149.388-108.395 0-196.267-87.872-196.267-196.267s87.872-196.267 196.267-196.267c10.997 0 19.911-8.915 19.911-19.911s-8.915-19.911-19.911-19.911c-130.388 0-236.089 105.701-236.089 236.089s105.701 236.089 236.089 236.089c113.704 0 208.635-80.381 231.067-187.419z" />
<glyph unicode="&#xe943;" glyph-name="IP5a" data-tags="IP5a" d="M535.508 316.091c-1.395 11.838 7.854 22.241 19.774 22.241h113.69l0.017 7.123c-1.802 2.15-4.064 5.196-6.64 9.182-5.131 7.939-10.164 17.621-14.791 29.132-12.816 31.883-20.403 72.165-20.403 121.498 0 61.76-34.766 97.78-86.846 110.007-8.999 2.113-15.36 10.141-15.36 19.384v24.336l0.030 1.096c0.015 0.271 0.015 0.53-0.009 0.974-0.312 6.738-6.033 11.948-12.782 11.633-6.744-0.312-11.956-6.031-11.641-12.773l0.022-0.929v-24.399c0-9.222-6.333-17.238-15.306-19.371-52.237-12.419-86.9-48.305-86.9-110.035 0-49.333-7.587-89.613-20.403-121.491-4.627-11.51-9.661-21.19-14.792-29.128-3.064-4.741-5.685-8.15-7.614-10.306v-5.931h112.618c11.859 0 21.089-10.301 19.792-22.089-0.048-0.439-0.078-0.881-0.083-0.81v-0.14c0-0.139 0-0.139 0-0.194 0.060-13.053 10.705-23.598 23.861-23.542h0.286c12.974 0.063 23.438 10.503 23.582 23.39-0.024 0.384-0.058 0.766-0.102 1.145zM512.169 251.734h-0.14c-0.139 0-0.139 0-0.201 0-29.356-0.125-54.154 19.692-61.534 46.776h-114.65c-10.997 0-19.911 8.915-19.911 19.911v29.142l0.023 0.951c0.415 8.677 4.192 16.821 10.471 22.737 0.069 0.087 0.15 0.189 0.241 0.306 0.931 1.19 2.029 2.729 3.258 4.631 3.76 5.816 7.616 13.233 11.287 22.363 10.892 27.093 17.529 62.328 17.529 106.637 0 75.789 41.579 124.584 102.206 144.466v8.929c-1.052 28.493 21.053 52.572 49.591 53.893 28.714 1.342 53.083-20.853 54.403-49.387 0.085-1.522 0.095-3.044 0.031-4.569v-8.768c60.538-19.744 102.206-68.692 102.206-144.485 0-44.309 6.637-79.548 17.53-106.646 3.671-9.132 7.528-16.552 11.288-22.37 1.229-1.902 2.327-3.442 3.258-4.633 0.209-0.268 0.362-0.458 0.454-0.573 6.248-6.329 9.591-14.943 9.308-23.828l-0.070-28.845c-0.027-10.978-8.933-19.863-19.911-19.863h-115.623c-7.306-26.836-31.797-46.633-61.043-46.776z" />
<glyph unicode="&#xe944;" glyph-name="GM1a" data-tags="GM1a" d="M669.737 388.048v-105.543c0-34.275-27.785-62.061-62.061-62.061h-289.616c-34.275 0-62.061 27.785-62.061 62.061v330.99c0 34.275 27.785 62.061 62.061 62.061h289.616c34.275 0 62.061-27.785 62.061-62.061v-107.094c-4.057-2.282-7.754-5.237-10.922-8.789-5.964-6.687-16.423-6.687-22.387 0-2.408 2.7-5.121 5.054-8.065 7.031v108.853c0 11.425-9.262 20.687-20.687 20.687h-289.616c-11.425 0-20.687-9.262-20.687-20.687v-330.99c0-11.425 9.262-20.687 20.687-20.687h289.616c11.425 0 20.687 9.262 20.687 20.687v101.644c10.576-10.319 27.092-10.378 37.381-0.090l3.993 3.989zM359.434 344.566c-11.425 0-20.687 9.262-20.687 20.687s9.262 20.687 20.687 20.687h124.121c11.425 0 20.687-9.262 20.687-20.687s-9.262-20.687-20.687-20.687h-124.121zM359.434 510.061c-11.425 0-20.687 9.262-20.687 20.687s9.262 20.687 20.687 20.687h124.121c11.425 0 20.687-9.262 20.687-20.687s-9.262-20.687-20.687-20.687h-124.121zM359.434 427.313c-11.425 0-20.687 9.262-20.687 20.687s9.262 20.687 20.687 20.687h82.747c11.425 0 20.687-9.262 20.687-20.687s-9.262-20.687-20.687-20.687h-82.747z" />
</font>
</defs>
</svg>
